  0
SECTION
  2
HEADER
  9
$ACADVER
  1
AC1024
  9
$ACADMAINTVER
 70
   181
  9
$DWGCODEPAGE
  3
ANSI_1252
  9
$AUTHOR
  1
Johannes
  9
$CUSTOMPROPERTYTAG
  1
Manager
  9
$CUSTOMPROPERTY
  1

  9
$CUSTOMPROPERTYTAG
  1
Company
  9
$CUSTOMPROPERTY
  1

  9
$CUSTOMPROPERTYTAG
  1
Category
  9
$CUSTOMPROPERTY
  1

  9
$CUSTOMPROPERTYTAG
  1
Part Number
  9
$CUSTOMPROPERTY
  1
M8 extra lange gaffel 888.200.233.300
  9
$CUSTOMPROPERTYTAG
  1
Description
  9
$CUSTOMPROPERTY
  1

  9
$CUSTOMPROPERTYTAG
  1
Project
  9
$CUSTOMPROPERTY
  1

  9
$CUSTOMPROPERTYTAG
  1
Designer
  9
$CUSTOMPROPERTY
  1
Johannes
  9
$CUSTOMPROPERTYTAG
  1
Engineer
  9
$CUSTOMPROPERTY
  1

  9
$CUSTOMPROPERTYTAG
  1
Authority
  9
$CUSTOMPROPERTY
  1

  9
$CUSTOMPROPERTYTAG
  1
Cost Center
  9
$CUSTOMPROPERTY
  1

  9
$CUSTOMPROPERTYTAG
  1
Cost
  9
$CUSTOMPROPERTY
  1

  9
$CUSTOMPROPERTYTAG
  1
Vendor
  9
$CUSTOMPROPERTY
  1

  9
$CUSTOMPROPERTYTAG
  1
User Status
  9
$CUSTOMPROPERTY
  1

  9
$CUSTOMPROPERTYTAG
  1
Design Status
  9
$CUSTOMPROPERTY
  1
WorkInProgress
  9
$CUSTOMPROPERTYTAG
  1
Checked by
  9
$CUSTOMPROPERTY
  1

  9
$CUSTOMPROPERTYTAG
  1
Engr Approved by
  9
$CUSTOMPROPERTY
  1

  9
$CUSTOMPROPERTYTAG
  1
Mfg Approved by
  9
$CUSTOMPROPERTY
  1

  9
$CUSTOMPROPERTYTAG
  1
Date Created
  9
$CUSTOMPROPERTY
  1
11/16/2018
  9
$CUSTOMPROPERTYTAG
  1
Stock Number
  9
$CUSTOMPROPERTY
  1

  9
$INSBASE
 10
0.0
 20
0.0
 30
0.0
  9
$EXTMIN
 10
0.0
 20
0.0
 30
0.0
  9
$EXTMAX
 10
139.7
 20
107.95
 30
0.0
  9
$LIMMIN
 10
0.0
 20
0.0
  9
$LIMMAX
 10
139.7
 20
107.95
  9
$ORTHOMODE
 70
     0
  9
$REGENMODE
 70
     1
  9
$FILLMODE
 70
     1
  9
$QTEXTMODE
 70
     0
  9
$MIRRTEXT
 70
     0
  9
$LTSCALE
 40
0.5
  9
$ATTMODE
 70
     1
  9
$TEXTSIZE
 40
0.2
  9
$TRACEWID
 40
0.05
  9
$TEXTSTYLE
  7
Standard
  9
$CLAYER
  8
0
  9
$CELTYPE
  6
ByLayer
  9
$CECOLOR
 62
   256
  9
$CELTSCALE
 40
1.0
  9
$DISPSILH
 70
     0
  9
$DIMSCALE
 40
1.0
  9
$DIMASZ
 40
1.799999999999999
  9
$DIMEXO
 40
0.0625
  9
$DIMDLI
 40
0.38
  9
$DIMRND
 40
0.0
  9
$DIMDLE
 40
0.0
  9
$DIMEXE
 40
0.18
  9
$DIMTP
 40
0.0
  9
$DIMTM
 40
0.0
  9
$DIMTXT
 40
0.3499999940395355
  9
$DIMCEN
 40
0.09
  9
$DIMTSZ
 40
0.0
  9
$DIMTOL
 70
     0
  9
$DIMLIM
 70
     0
  9
$DIMTIH
 70
     1
  9
$DIMTOH
 70
     1
  9
$DIMSE1
 70
     0
  9
$DIMSE2
 70
     0
  9
$DIMTAD
 70
     0
  9
$DIMZIN
 70
     0
  9
$DIMBLK
  1

  9
$DIMASO
 70
     1
  9
$DIMSHO
 70
     1
  9
$DIMPOST
  1

  9
$DIMAPOST
  1

  9
$DIMALT
 70
     0
  9
$DIMALTD
 70
     2
  9
$DIMALTF
 40
25.4
  9
$DIMLFAC
 40
1.0
  9
$DIMTOFL
 70
     0
  9
$DIMTVP
 40
0.0
  9
$DIMTIX
 70
     0
  9
$DIMSOXD
 70
     0
  9
$DIMSAH
 70
     0
  9
$DIMBLK1
  1

  9
$DIMBLK2
  1

  9
$DIMSTYLE
  2
Standard
  9
$DIMCLRD
 70
     0
  9
$DIMCLRE
 70
     0
  9
$DIMCLRT
 70
     0
  9
$DIMTFAC
 40
1.0
  9
$DIMGAP
 40
0.09
  9
$DIMJUST
 70
     0
  9
$DIMSD1
 70
     0
  9
$DIMSD2
 70
     0
  9
$DIMTOLJ
 70
     1
  9
$DIMTZIN
 70
     0
  9
$DIMALTZ
 70
     0
  9
$DIMALTTZ
 70
     0
  9
$DIMUPT
 70
     0
  9
$DIMDEC
 70
     4
  9
$DIMTDEC
 70
     4
  9
$DIMALTU
 70
     2
  9
$DIMALTTD
 70
     2
  9
$DIMTXSTY
  7
Standard
  9
$DIMAUNIT
 70
     0
  9
$DIMADEC
 70
     0
  9
$DIMALTRND
 40
0.0
  9
$DIMAZIN
 70
     0
  9
$DIMDSEP
 70
    46
  9
$DIMATFIT
 70
     3
  9
$DIMFRAC
 70
     0
  9
$DIMLDRBLK
  1

  9
$DIMLUNIT
 70
     2
  9
$DIMLWD
 70
    -2
  9
$DIMLWE
 70
    -2
  9
$DIMTMOVE
 70
     0
  9
$DIMFXL
 40
1.0
  9
$DIMFXLON
 70
     0
  9
$DIMJOGANG
 40
0.7853981633974483
  9
$DIMTFILL
 70
     0
  9
$DIMTFILLCLR
 70
     0
  9
$DIMARCSYM
 70
     0
  9
$DIMLTYPE
  6

  9
$DIMLTEX1
  6

  9
$DIMLTEX2
  6

  9
$DIMTXTDIRECTION
 70
     0
  9
$LUNITS
 70
     2
  9
$LUPREC
 70
     4
  9
$SKETCHINC
 40
0.1
  9
$FILLETRAD
 40
0.0
  9
$AUNITS
 70
     0
  9
$AUPREC
 70
     0
  9
$MENU
  1
.
  9
$ELEVATION
 40
0.0
  9
$PELEVATION
 40
0.0
  9
$THICKNESS
 40
0.0
  9
$LIMCHECK
 70
     0
  9
$CHAMFERA
 40
0.0
  9
$CHAMFERB
 40
0.0
  9
$CHAMFERC
 40
0.0
  9
$CHAMFERD
 40
0.0
  9
$SKPOLY
 70
     0
  9
$TDCREATE
 40
2458457.464396597
  9
$TDUCREATE
 40
2458457.422729931
  9
$TDUPDATE
 40
2458457.464396597
  9
$TDUUPDATE
 40
2458457.422729931
  9
$TDINDWG
 40
0.0000120602
  9
$TDUSRTIMER
 40
0.0000120602
  9
$USRTIMER
 70
     1
  9
$ANGBASE
 50
0.0
  9
$ANGDIR
 70
     0
  9
$PDMODE
 70
     0
  9
$PDSIZE
 40
0.0
  9
$PLINEWID
 40
0.0
  9
$SPLFRAME
 70
     0
  9
$SPLINETYPE
 70
     6
  9
$SPLINESEGS
 70
     8
  9
$HANDSEED
  5
95A
  9
$SURFTAB1
 70
     6
  9
$SURFTAB2
 70
     6
  9
$SURFTYPE
 70
     6
  9
$SURFU
 70
     6
  9
$SURFV
 70
     6
  9
$UCSBASE
  2

  9
$UCSNAME
  2

  9
$UCSORG
 10
0.0
 20
0.0
 30
0.0
  9
$UCSXDIR
 10
1.0
 20
0.0
 30
0.0
  9
$UCSYDIR
 10
0.0
 20
1.0
 30
0.0
  9
$UCSORTHOREF
  2

  9
$UCSORTHOVIEW
 70
     0
  9
$UCSORGTOP
 10
0.0
 20
0.0
 30
0.0
  9
$UCSORGBOTTOM
 10
0.0
 20
0.0
 30
0.0
  9
$UCSORGLEFT
 10
0.0
 20
0.0
 30
0.0
  9
$UCSORGRIGHT
 10
0.0
 20
0.0
 30
0.0
  9
$UCSORGFRONT
 10
0.0
 20
0.0
 30
0.0
  9
$UCSORGBACK
 10
0.0
 20
0.0
 30
0.0
  9
$PUCSBASE
  2

  9
$PUCSNAME
  2

  9
$PUCSORG
 10
0.0
 20
0.0
 30
0.0
  9
$PUCSXDIR
 10
1.0
 20
0.0
 30
0.0
  9
$PUCSYDIR
 10
0.0
 20
1.0
 30
0.0
  9
$PUCSORTHOREF
  2

  9
$PUCSORTHOVIEW
 70
     0
  9
$PUCSORGTOP
 10
0.0
 20
0.0
 30
0.0
  9
$PUCSORGBOTTOM
 10
0.0
 20
0.0
 30
0.0
  9
$PUCSORGLEFT
 10
0.0
 20
0.0
 30
0.0
  9
$PUCSORGRIGHT
 10
0.0
 20
0.0
 30
0.0
  9
$PUCSORGFRONT
 10
0.0
 20
0.0
 30
0.0
  9
$PUCSORGBACK
 10
0.0
 20
0.0
 30
0.0
  9
$USERI1
 70
     0
  9
$USERI2
 70
     0
  9
$USERI3
 70
     0
  9
$USERI4
 70
     0
  9
$USERI5
 70
     0
  9
$USERR1
 40
0.0
  9
$USERR2
 40
0.0
  9
$USERR3
 40
0.0
  9
$USERR4
 40
0.0
  9
$USERR5
 40
0.0
  9
$WORLDVIEW
 70
     1
  9
$SHADEDGE
 70
     3
  9
$SHADEDIF
 70
    70
  9
$TILEMODE
 70
     1
  9
$MAXACTVP
 70
    64
  9
$PINSBASE
 10
0.0
 20
0.0
 30
0.0
  9
$PLIMCHECK
 70
     0
  9
$PEXTMIN
 10
0.0
 20
0.0
 30
0.0
  9
$PEXTMAX
 10
139.7
 20
107.95
 30
0.0
  9
$PLIMMIN
 10
0.0
 20
0.0
  9
$PLIMMAX
 10
139.7
 20
107.95
  9
$UNITMODE
 70
     0
  9
$VISRETAIN
 70
     1
  9
$PLINEGEN
 70
     0
  9
$PSLTSCALE
 70
     1
  9
$TREEDEPTH
 70
  3020
  9
$CMLSTYLE
  2
Standard
  9
$CMLJUST
 70
     0
  9
$CMLSCALE
 40
1.0
  9
$PROXYGRAPHICS
 70
     1
  9
$MEASUREMENT
 70
     1
  9
$CELWEIGHT
370
    -1
  9
$ENDCAPS
280
     0
  9
$JOINSTYLE
280
     0
  9
$LWDISPLAY
290
     0
  9
$INSUNITS
 70
     4
  9
$HYPERLINKBASE
  1

  9
$STYLESHEET
  1

  9
$XEDIT
290
     1
  9
$CEPSNTYPE
380
     0
  9
$PSTYLEMODE
290
     1
  9
$FINGERPRINTGUID
  2
{3A53E8F3-B4BB-40B3-80FE-0748853F2037}
  9
$VERSIONGUID
  2
{6CA7E673-A173-4A24-97CD-A51199C02605}
  9
$EXTNAMES
290
     1
  9
$PSVPSCALE
 40
0.0
  9
$OLESTARTUP
290
     0
  9
$SORTENTS
280
   127
  9
$INDEXCTL
280
     0
  9
$HIDETEXT
280
     1
  9
$XCLIPFRAME
280
     2
  9
$HALOGAP
280
     0
  9
$OBSCOLOR
 70
   257
  9
$OBSLTYPE
280
     0
  9
$INTERSECTIONDISPLAY
280
     0
  9
$INTERSECTIONCOLOR
 70
   257
  9
$DIMASSOC
280
     1
  9
$PROJECTNAME
  1

  9
$CAMERADISPLAY
290
     0
  9
$LENSLENGTH
 40
50.0
  9
$CAMERAHEIGHT
 40
0.0
  9
$STEPSPERSEC
 40
2.0
  9
$STEPSIZE
 40
6.0
  9
$3DDWFPREC
 40
2.0
  9
$PSOLWIDTH
 40
0.25
  9
$PSOLHEIGHT
 40
4.0
  9
$LOFTANG1
 40
1.570796326794896
  9
$LOFTANG2
 40
1.570796326794896
  9
$LOFTMAG1
 40
0.0
  9
$LOFTMAG2
 40
0.0
  9
$LOFTPARAM
 70
     7
  9
$LOFTNORMALS
280
     1
  9
$LATITUDE
 40
37.795
  9
$LONGITUDE
 40
-122.394
  9
$NORTHDIRECTION
 40
0.0
  9
$TIMEZONE
 70
 -8000
  9
$LIGHTGLYPHDISPLAY
280
     1
  9
$TILEMODELIGHTSYNCH
280
     1
  9
$CMATERIAL
347
11
  9
$SOLIDHIST
280
     0
  9
$SHOWHIST
280
     1
  9
$DWFFRAME
280
     2
  9
$DGNFRAME
280
     0
  9
$REALWORLDSCALE
290
     1
  9
$INTERFERECOLOR
 62
     1
  9
$INTERFEREOBJVS
345
33
  9
$INTERFEREVPVS
346
30
  9
$CSHADOW
280
     0
  9
$SHADOWPLANELOCATION
 40
0.0
  0
ENDSEC
  0
SECTION
  2
CLASSES
  0
CLASS
  1
ACDBDICTIONARYWDFLT
  2
AcDbDictionaryWithDefault
  3
ObjectDBX Classes
 90
        0
 91
        1
280
     0
281
     0
  0
CLASS
  1
MATERIAL
  2
AcDbMaterial
  3
ObjectDBX Classes
 90
     1153
 91
        3
280
     0
281
     0
  0
CLASS
  1
VISUALSTYLE
  2
AcDbVisualStyle
  3
ObjectDBX Classes
 90
     4095
 91
       24
280
     0
281
     0
  0
CLASS
  1
SCALE
  2
AcDbScale
  3
ObjectDBX Classes
 90
     1153
 91
       17
280
     0
281
     0
  0
CLASS
  1
TABLESTYLE
  2
AcDbTableStyle
  3
ObjectDBX Classes
 90
     4095
 91
        1
280
     0
281
     0
  0
CLASS
  1
MLEADERSTYLE
  2
AcDbMLeaderStyle
  3
ACDB_MLEADERSTYLE_CLASS
 90
     4095
 91
        1
280
     0
281
     0
  0
CLASS
  1
ACDBSECTIONVIEWSTYLE
  2
AcDbSectionViewStyle
  3
ObjectDBX Classes
 90
     1025
 91
        1
280
     0
281
     0
  0
CLASS
  1
ACDBDETAILVIEWSTYLE
  2
AcDbDetailViewStyle
  3
ObjectDBX Classes
 90
     1025
 91
        1
280
     0
281
     0
  0
CLASS
  1
DICTIONARYVAR
  2
AcDbDictionaryVar
  3
ObjectDBX Classes
 90
        0
 91
        5
280
     0
281
     0
  0
CLASS
  1
CELLSTYLEMAP
  2
AcDbCellStyleMap
  3
ObjectDBX Classes
 90
     1152
 91
        1
280
     0
281
     0
  0
ENDSEC
  0
SECTION
  2
TABLES
  0
TABLE
  2
VPORT
  5
8
330
0
100
AcDbSymbolTable
 70
     1
  0
VPORT
  5
57
330
8
100
AcDbSymbolTableRecord
100
AcDbViewportTableRecord
  2
*Active
 70
     0
 10
0.0
 20
0.0
 11
1.0
 21
1.0
 12
69.84999999999999
 22
53.97499999999999
 13
0.0
 23
0.0
 14
1.0
 24
1.0
 15
0.0
 25
0.0
 16
0.0
 26
0.0
 36
1.0
 17
0.0
 27
0.0
 37
0.0
 40
107.95
 41
1.294117647058823
 42
50.0
 43
0.0
 44
0.0
 50
0.0
 51
0.0
 71
     0
 72
   100
 73
     1
 74
     1
 75
     0
 76
     0
 77
     0
 78
     0
281
     0
 65
     1
110
0.0
120
0.0
130
0.0
111
1.0
121
0.0
131
0.0
112
0.0
122
1.0
132
0.0
 79
     0
146
0.0
 60
     3
 61
     5
292
     1
282
     1
141
0.0
142
0.0
 63
   250
421
  3355443
  0
ENDTAB
  0
TABLE
  2
LTYPE
  5
5
330
0
100
AcDbSymbolTable
 70
    59
  0
LTYPE
  5
5B
330
5
100
AcDbSymbolTableRecord
100
AcDbLinetypeTableRecord
  2
ByBlock
 70
     0
  3

 72
    65
 73
     0
 40
0.0
  0
LTYPE
  5
5C
330
5
100
AcDbSymbolTableRecord
100
AcDbLinetypeTableRecord
  2
ByLayer
 70
     0
  3

 72
    65
 73
     0
 40
0.0
  0
LTYPE
  5
5D
330
5
100
AcDbSymbolTableRecord
100
AcDbLinetypeTableRecord
  2
Continuous
 70
     0
  3
Solid line
 72
    65
 73
     0
 40
0.0
  0
LTYPE
  5
78
330
5
100
AcDbSymbolTableRecord
100
AcDbLinetypeTableRecord
  2
Section_View_Lines
 70
     0
  3
Section View Lines
 72
    65
 73
     4
 40
0.8406
 49
0.6614
 74
     0
 49
-0.0827
 74
     0
 49
0.0138
 74
     0
 49
-0.0827
 74
     0
  0
LTYPE
  5
79
330
5
100
AcDbSymbolTableRecord
100
AcDbLinetypeTableRecord
  2
CHAIN
 70
     0
  3
Chain ____ _ ____ _ ____ _ ____ _ ____ _ ____
 72
    65
 73
     4
 40
0.3543
 49
0.2362
 74
     0
 49
-0.0295
 74
     0
 49
0.0591
 74
     0
 49
-0.0295
 74
     0
  0
LTYPE
  5
7A
330
5
100
AcDbSymbolTableRecord
100
AcDbLinetypeTableRecord
  2
DASH_DOT
 70
     0
  3
Dash dot _._._._._._._._._._._._._._._.
 72
    65
 73
     4
 40
0.37
 49
0.24
 74
     0
 49
-0.06
 74
     0
 49
0.01
 74
     0
 49
-0.06
 74
     0
  0
LTYPE
  5
7B
330
5
100
AcDbSymbolTableRecord
100
AcDbLinetypeTableRecord
  2
DASH_DOUBLE_DOT
 70
     0
  3
Dash Double Dot __ __ . __ __ . __ __ . __ _
 72
    65
 73
     6
 40
0.4398
 49
0.24
 74
     0
 49
-0.06
 74
     0
 49
0.0098
 74
     0
 49
-0.06
 74
     0
 49
0.01
 74
     0
 49
-0.06
 74
     0
  0
LTYPE
  5
7C
330
5
100
AcDbSymbolTableRecord
100
AcDbLinetypeTableRecord
  2
DASH_TRIPLE_DOT
 70
     0
  3
Dash Triple-Dot _ . . . _ . . . _ . . . _
 72
    65
 73
     8
 40
0.51
 49
0.24
 74
     0
 49
-0.06
 74
     0
 49
0.01
 74
     0
 49
-0.06
 74
     0
 49
0.01
 74
     0
 49
-0.06
 74
     0
 49
0.01
 74
     0
 49
-0.06
 74
     0
  0
LTYPE
  5
7D
330
5
100
AcDbSymbolTableRecord
100
AcDbLinetypeTableRecord
  2
DASHED
 70
     0
  3
Dashed __ __ __ __ __ __ __ __ __ __ __ __ __ _
 72
    65
 73
     2
 40
0.2067
 49
0.1654
 74
     0
 49
-0.0413
 74
     0
  0
LTYPE
  5
7E
330
5
100
AcDbSymbolTableRecord
100
AcDbLinetypeTableRecord
  2
DASHED_SPACE
 70
     0
  3
Dashed Space _._._._._._._._._._._._._._._.
 72
    65
 73
     2
 40
0.2067
 49
0.1654
 74
     0
 49
-0.0413
 74
     0
  0
LTYPE
  5
7F
330
5
100
AcDbSymbolTableRecord
100
AcDbLinetypeTableRecord
  2
DOTTED
 70
     0
  3
Dotted . . . . . . . . . . . . . . . . . . . . 
 72
    65
 73
     2
 40
0.0482
 49
0.0069
 74
     0
 49
-0.0413
 74
     0
  0
LTYPE
  5
80
330
5
100
AcDbSymbolTableRecord
100
AcDbLinetypeTableRecord
  2
DOUBLE_DASH_CHAIN
 70
     0
  3
Double Dash Chain ___ _ _ ___ _ _ ___ _ _ ___ _
 72
    65
 73
     6
 40
1.240299999999999
 49
0.6614
 74
     0
 49
-0.0827
 74
     0
 49
0.1654
 74
     0
 49
-0.0827
 74
     0
 49
0.1654
 74
     0
 49
-0.0827
 74
     0
  0
LTYPE
  5
81
330
5
100
AcDbSymbolTableRecord
100
AcDbLinetypeTableRecord
  2
DOUBLE_DASH_DOT
 70
     0
  3
Double Dash Dot __ __ . __ __ . __ __ . __ _
 72
    65
 73
     6
 40
0.67
 49
0.24
 74
     0
 49
-0.06
 74
     0
 49
0.24
 74
     0
 49
-0.06
 74
     0
 49
0.01
 74
     0
 49
-0.06
 74
     0
  0
LTYPE
  5
82
330
5
100
AcDbSymbolTableRecord
100
AcDbLinetypeTableRecord
  2
DOUBLE_DASH_DOUBLE_DOT
 70
     0
  3
Double-dash double-dot _ _ . . _ _ . . _
 72
    65
 73
     8
 40
0.7400000000000001
 49
0.24
 74
     0
 49
-0.06
 74
     0
 49
0.24
 74
     0
 49
-0.06
 74
     0
 49
0.01
 74
     0
 49
-0.06
 74
     0
 49
0.01
 74
     0
 49
-0.06
 74
     0
  0
LTYPE
  5
83
330
5
100
AcDbSymbolTableRecord
100
AcDbLinetypeTableRecord
  2
DOUBLE_DASH_TRIPLE_DOT
 70
     0
  3
Double Dash Triple Dot __ __ . . . __ __ . . .
 72
    65
 73
    10
 40
0.8100000000000001
 49
0.24
 74
     0
 49
-0.06
 74
     0
 49
0.24
 74
     0
 49
-0.06
 74
     0
 49
0.01
 74
     0
 49
-0.06
 74
     0
 49
0.01
 74
     0
 49
-0.06
 74
     0
 49
0.01
 74
     0
 49
-0.06
 74
     0
  0
LTYPE
  5
84
330
5
100
AcDbSymbolTableRecord
100
AcDbLinetypeTableRecord
  2
LONG_DASH_DOTTED
 70
     0
  3
Long-Dash Dot ____ . ____ . ____ . ____ . _
 72
    65
 73
     4
 40
0.3001
 49
0.2362
 74
     0
 49
-0.0295
 74
     0
 49
0.0049
 74
     0
 49
-0.0295
 74
     0
  0
LTYPE
  5
85
330
5
100
AcDbSymbolTableRecord
100
AcDbLinetypeTableRecord
  2
LONG_DASH_DOUBLE_DOT
 70
     0
  3
Long Dash Double Dot ____ . . ____ . . ____ . .
 72
    65
 73
     6
 40
0.3345
 49
0.2362
 74
     0
 49
-0.0295
 74
     0
 49
0.0049
 74
     0
 49
-0.0295
 74
     0
 49
0.0049
 74
     0
 49
-0.0295
 74
     0
  0
LTYPE
  5
86
330
5
100
AcDbSymbolTableRecord
100
AcDbLinetypeTableRecord
  2
LONG_DASH_TRIPLE_DOT
 70
     0
  3
Long Dash Triple Dot ____ ... ____ ... ____
 72
    65
 73
     8
 40
0.75
 49
0.48
 74
     0
 49
-0.06
 74
     0
 49
0.01
 74
     0
 49
-0.06
 74
     0
 49
0.01
 74
     0
 49
-0.06
 74
     0
 49
0.01
 74
     0
 49
-0.06
 74
     0
  0
LTYPE
  5
87
330
5
100
AcDbSymbolTableRecord
100
AcDbLinetypeTableRecord
  2
BORDER
 70
     0
  3
Border __ __ . __ __ . __ __ . __ __ . __ __ .
 72
    65
 73
     6
 40
44.45
 49
12.7
 74
     0
 49
-6.349999999999999
 74
     0
 49
12.7
 74
     0
 49
-6.349999999999999
 74
     0
 49
0.0
 74
     0
 49
-6.349999999999999
 74
     0
  0
LTYPE
  5
88
330
5
100
AcDbSymbolTableRecord
100
AcDbLinetypeTableRecord
  2
BORDER2
 70
     0
  3
Border (.5x) __.__.__.__.__.__.__.__.__.__.__.
 72
    65
 73
     6
 40
22.225
 49
6.349999999999999
 74
     0
 49
-3.174999999999999
 74
     0
 49
6.349999999999999
 74
     0
 49
-3.174999999999999
 74
     0
 49
0.0
 74
     0
 49
-3.174999999999999
 74
     0
  0
LTYPE
  5
89
330
5
100
AcDbSymbolTableRecord
100
AcDbLinetypeTableRecord
  2
BORDERX2
 70
     0
  3
Border (2x) ____  ____  .  ____  ____  .  ___
 72
    65
 73
     6
 40
88.9
 49
25.4
 74
     0
 49
-12.7
 74
     0
 49
25.4
 74
     0
 49
-12.7
 74
     0
 49
0.0
 74
     0
 49
-12.7
 74
     0
  0
LTYPE
  5
8A
330
5
100
AcDbSymbolTableRecord
100
AcDbLinetypeTableRecord
  2
CENTER
 70
     0
  3
Center ____ _ ____ _ ____ _ ____ _ ____ _ ____
 72
    65
 73
     4
 40
50.8
 49
31.75
 74
     0
 49
-6.349999999999999
 74
     0
 49
6.349999999999999
 74
     0
 49
-6.349999999999999
 74
     0
  0
LTYPE
  5
8B
330
5
100
AcDbSymbolTableRecord
100
AcDbLinetypeTableRecord
  2
CENTER2
 70
     0
  3
Center (.5x) ___ _ ___ _ ___ _ ___ _ ___ _ ___
 72
    65
 73
     4
 40
28.575
 49
19.05
 74
     0
 49
-3.174999999999999
 74
     0
 49
3.174999999999999
 74
     0
 49
-3.174999999999999
 74
     0
  0
LTYPE
  5
8C
330
5
100
AcDbSymbolTableRecord
100
AcDbLinetypeTableRecord
  2
CENTERX2
 70
     0
  3
Center (2x) ________  __  ________  __  _____
 72
    65
 73
     4
 40
101.6
 49
63.5
 74
     0
 49
-12.7
 74
     0
 49
12.7
 74
     0
 49
-12.7
 74
     0
  0
LTYPE
  5
8D
330
5
100
AcDbSymbolTableRecord
100
AcDbLinetypeTableRecord
  2
DASHDOT2
 70
     0
  3
Dash dot (.5x) _._._._._._._._._._._._._._._.
 72
    65
 73
     4
 40
12.7
 49
6.349999999999999
 74
     0
 49
-3.174999999999999
 74
     0
 49
0.0
 74
     0
 49
-3.174999999999999
 74
     0
  0
LTYPE
  5
8E
330
5
100
AcDbSymbolTableRecord
100
AcDbLinetypeTableRecord
  2
DASHDOTX2
 70
     0
  3
Dash dot (2x) ____  .  ____  .  ____  .  ___
 72
    65
 73
     4
 40
50.8
 49
25.4
 74
     0
 49
-12.7
 74
     0
 49
0.0
 74
     0
 49
-12.7
 74
     0
  0
LTYPE
  5
8F
330
5
100
AcDbSymbolTableRecord
100
AcDbLinetypeTableRecord
  2
DASHED2
 70
     0
  3
Dashed (.5x) _ _ _ _ _ _ _ _ _ _ _ _ _ _ _ _ _
 72
    65
 73
     2
 40
9.524999999999998
 49
6.349999999999999
 74
     0
 49
-3.174999999999999
 74
     0
  0
LTYPE
  5
90
330
5
100
AcDbSymbolTableRecord
100
AcDbLinetypeTableRecord
  2
DASHEDX2
 70
     0
  3
Dashed (2x) ____  ____  ____  ____  ____  ___
 72
    65
 73
     2
 40
38.1
 49
25.4
 74
     0
 49
-12.7
 74
     0
  0
LTYPE
  5
91
330
5
100
AcDbSymbolTableRecord
100
AcDbLinetypeTableRecord
  2
DIVIDE
 70
     0
  3
Divide ____ . . ____ . . ____ . . ____ . . ____
 72
    65
 73
     6
 40
31.75
 49
12.7
 74
     0
 49
-6.349999999999999
 74
     0
 49
0.0
 74
     0
 49
-6.349999999999999
 74
     0
 49
0.0
 74
     0
 49
-6.349999999999999
 74
     0
  0
LTYPE
  5
92
330
5
100
AcDbSymbolTableRecord
100
AcDbLinetypeTableRecord
  2
DIVIDE2
 70
     0
  3
Divide (.5x) __..__..__..__..__..__..__..__.._
 72
    65
 73
     6
 40
15.875
 49
6.349999999999999
 74
     0
 49
-3.174999999999999
 74
     0
 49
0.0
 74
     0
 49
-3.174999999999999
 74
     0
 49
0.0
 74
     0
 49
-3.174999999999999
 74
     0
  0
LTYPE
  5
93
330
5
100
AcDbSymbolTableRecord
100
AcDbLinetypeTableRecord
  2
DIVIDEX2
 70
     0
  3
Divide (2x) ________  .  .  ________  .  .  _
 72
    65
 73
     6
 40
63.49999999999999
 49
25.4
 74
     0
 49
-12.7
 74
     0
 49
0.0
 74
     0
 49
-12.7
 74
     0
 49
0.0
 74
     0
 49
-12.7
 74
     0
  0
LTYPE
  5
94
330
5
100
AcDbSymbolTableRecord
100
AcDbLinetypeTableRecord
  2
DOT
 70
     0
  3
Dot . . . . . . . . . . . . . . . . . . . . . .
 72
    65
 73
     2
 40
6.349999999999999
 49
0.0
 74
     0
 49
-6.349999999999999
 74
     0
  0
LTYPE
  5
95
330
5
100
AcDbSymbolTableRecord
100
AcDbLinetypeTableRecord
  2
DOT2
 70
     0
  3
Dot (.5x) .....................................
 72
    65
 73
     2
 40
3.174999999999999
 49
0.0
 74
     0
 49
-3.174999999999999
 74
     0
  0
LTYPE
  5
96
330
5
100
AcDbSymbolTableRecord
100
AcDbLinetypeTableRecord
  2
DOTX2
 70
     0
  3
Dot (2x) .  .  .  .  .  .  .  .  .  .  .  .  . 
 72
    65
 73
     2
 40
12.7
 49
0.0
 74
     0
 49
-12.7
 74
     0
  0
LTYPE
  5
97
330
5
100
AcDbSymbolTableRecord
100
AcDbLinetypeTableRecord
  2
HIDDEN
 70
     0
  3
Hidden __ __ __ __ __ __ __ __ __ __ __ __ __ _
 72
    65
 73
     2
 40
9.524999999999998
 49
6.349999999999999
 74
     0
 49
-3.174999999999999
 74
     0
  0
LTYPE
  5
98
330
5
100
AcDbSymbolTableRecord
100
AcDbLinetypeTableRecord
  2
HIDDEN2
 70
     0
  3
Hidden (.5x) _ _ _ _ _ _ _ _ _ _ _ _ _ _ _ _ _
 72
    65
 73
     2
 40
4.762499999999999
 49
3.174999999999999
 74
     0
 49
-1.587499999999999
 74
     0
  0
LTYPE
  5
99
330
5
100
AcDbSymbolTableRecord
100
AcDbLinetypeTableRecord
  2
HIDDENX2
 70
     0
  3
Hidden (2x) ____ ____ ____ ____ ____ ____ ____
 72
    65
 73
     2
 40
19.05
 49
12.7
 74
     0
 49
-6.349999999999999
 74
     0
  0
LTYPE
  5
9A
330
5
100
AcDbSymbolTableRecord
100
AcDbLinetypeTableRecord
  2
PHANTOM
 70
     0
  3
Phantom ______  __  __  ______  __  __  ______
 72
    65
 73
     6
 40
63.5
 49
31.75
 74
     0
 49
-6.349999999999999
 74
     0
 49
6.349999999999999
 74
     0
 49
-6.349999999999999
 74
     0
 49
6.349999999999999
 74
     0
 49
-6.349999999999999
 74
     0
  0
LTYPE
  5
9B
330
5
100
AcDbSymbolTableRecord
100
AcDbLinetypeTableRecord
  2
PHANTOM2
 70
     0
  3
Phantom (.5x) ___ _ _ ___ _ _ ___ _ _ ___ _ _
 72
    65
 73
     6
 40
31.75
 49
15.875
 74
     0
 49
-3.174999999999999
 74
     0
 49
3.174999999999999
 74
     0
 49
-3.174999999999999
 74
     0
 49
3.174999999999999
 74
     0
 49
-3.174999999999999
 74
     0
  0
LTYPE
  5
9C
330
5
100
AcDbSymbolTableRecord
100
AcDbLinetypeTableRecord
  2
PHANTOMX2
 70
     0
  3
Phantom (2x) ____________    ____    ____   _
 72
    65
 73
     6
 40
127.0
 49
63.5
 74
     0
 49
-12.7
 74
     0
 49
12.7
 74
     0
 49
-12.7
 74
     0
 49
12.7
 74
     0
 49
-12.7
 74
     0
  0
LTYPE
  5
9D
330
5
100
AcDbSymbolTableRecord
100
AcDbLinetypeTableRecord
  2
ACAD_ISO02W100
 70
     0
  3
ISO dash __ __ __ __ __ __ __ __ __ __ __ __ __
 72
    65
 73
     2
 40
15.0
 49
12.0
 74
     0
 49
-3.0
 74
     0
  0
LTYPE
  5
9E
330
5
100
AcDbSymbolTableRecord
100
AcDbLinetypeTableRecord
  2
ACAD_ISO03W100
 70
     0
  3
ISO dash space __    __    __    __    __    __
 72
    65
 73
     2
 40
30.0
 49
12.0
 74
     0
 49
-18.0
 74
     0
  0
LTYPE
  5
9F
330
5
100
AcDbSymbolTableRecord
100
AcDbLinetypeTableRecord
  2
ACAD_ISO04W100
 70
     0
  3
ISO long-dash dot ____ . ____ . ____ . ____ . _
 72
    65
 73
     4
 40
30.0
 49
24.0
 74
     0
 49
-3.0
 74
     0
 49
0.0
 74
     0
 49
-3.0
 74
     0
  0
LTYPE
  5
A0
330
5
100
AcDbSymbolTableRecord
100
AcDbLinetypeTableRecord
  2
ACAD_ISO05W100
 70
     0
  3
ISO long-dash double-dot ____ .. ____ .. ____ .
 72
    65
 73
     6
 40
33.0
 49
24.0
 74
     0
 49
-3.0
 74
     0
 49
0.0
 74
     0
 49
-3.0
 74
     0
 49
0.0
 74
     0
 49
-3.0
 74
     0
  0
LTYPE
  5
A1
330
5
100
AcDbSymbolTableRecord
100
AcDbLinetypeTableRecord
  2
ACAD_ISO06W100
 70
     0
  3
ISO long-dash triple-dot ____ ... ____ ... ____
 72
    65
 73
     8
 40
36.0
 49
24.0
 74
     0
 49
-3.0
 74
     0
 49
0.0
 74
     0
 49
-3.0
 74
     0
 49
0.0
 74
     0
 49
-3.0
 74
     0
 49
0.0
 74
     0
 49
-3.0
 74
     0
  0
LTYPE
  5
A2
330
5
100
AcDbSymbolTableRecord
100
AcDbLinetypeTableRecord
  2
ACAD_ISO07W100
 70
     0
  3
ISO dot . . . . . . . . . . . . . . . . . . . .
 72
    65
 73
     2
 40
3.0
 49
0.0
 74
     0
 49
-3.0
 74
     0
  0
LTYPE
  5
A3
330
5
100
AcDbSymbolTableRecord
100
AcDbLinetypeTableRecord
  2
ACAD_ISO08W100
 70
     0
  3
ISO long-dash short-dash ____ __ ____ __ ____ _
 72
    65
 73
     4
 40
36.0
 49
24.0
 74
     0
 49
-3.0
 74
     0
 49
6.0
 74
     0
 49
-3.0
 74
     0
  0
LTYPE
  5
A4
330
5
100
AcDbSymbolTableRecord
100
AcDbLinetypeTableRecord
  2
ACAD_ISO09W100
 70
     0
  3
ISO long-dash double-short-dash ____ __ __ ____
 72
    65
 73
     6
 40
45.0
 49
24.0
 74
     0
 49
-3.0
 74
     0
 49
6.0
 74
     0
 49
-3.0
 74
     0
 49
6.0
 74
     0
 49
-3.0
 74
     0
  0
LTYPE
  5
A5
330
5
100
AcDbSymbolTableRecord
100
AcDbLinetypeTableRecord
  2
ACAD_ISO10W100
 70
     0
  3
ISO dash dot __ . __ . __ . __ . __ . __ . __ .
 72
    65
 73
     4
 40
18.0
 49
12.0
 74
     0
 49
-3.0
 74
     0
 49
0.0
 74
     0
 49
-3.0
 74
     0
  0
LTYPE
  5
A6
330
5
100
AcDbSymbolTableRecord
100
AcDbLinetypeTableRecord
  2
ACAD_ISO11W100
 70
     0
  3
ISO double-dash dot __ __ . __ __ . __ __ . __ 
 72
    65
 73
     6
 40
33.0
 49
12.0
 74
     0
 49
-3.0
 74
     0
 49
12.0
 74
     0
 49
-3.0
 74
     0
 49
0.0
 74
     0
 49
-3.0
 74
     0
  0
LTYPE
  5
A7
330
5
100
AcDbSymbolTableRecord
100
AcDbLinetypeTableRecord
  2
ACAD_ISO12W100
 70
     0
  3
ISO dash double-dot __ . . __ . . __ . . __ . .
 72
    65
 73
     6
 40
21.0
 49
12.0
 74
     0
 49
-3.0
 74
     0
 49
0.0
 74
     0
 49
-3.0
 74
     0
 49
0.0
 74
     0
 49
-3.0
 74
     0
  0
LTYPE
  5
A8
330
5
100
AcDbSymbolTableRecord
100
AcDbLinetypeTableRecord
  2
ACAD_ISO13W100
 70
     0
  3
ISO double-dash double-dot __ __ . . __ __ . . 
 72
    65
 73
     8
 40
36.0
 49
12.0
 74
     0
 49
-3.0
 74
     0
 49
12.0
 74
     0
 49
-3.0
 74
     0
 49
0.0
 74
     0
 49
-3.0
 74
     0
 49
0.0
 74
     0
 49
-3.0
 74
     0
  0
LTYPE
  5
A9
330
5
100
AcDbSymbolTableRecord
100
AcDbLinetypeTableRecord
  2
ACAD_ISO14W100
 70
     0
  3
ISO dash triple-dot __ . . . __ . . . __ . . . 
 72
    65
 73
     8
 40
24.0
 49
12.0
 74
     0
 49
-3.0
 74
     0
 49
0.0
 74
     0
 49
-3.0
 74
     0
 49
0.0
 74
     0
 49
-3.0
 74
     0
 49
0.0
 74
     0
 49
-3.0
 74
     0
  0
LTYPE
  5
AA
330
5
100
AcDbSymbolTableRecord
100
AcDbLinetypeTableRecord
  2
ACAD_ISO15W100
 70
     0
  3
ISO double-dash triple-dot __ __ . . . __ __ . 
 72
    65
 73
    10
 40
39.0
 49
12.0
 74
     0
 49
-3.0
 74
     0
 49
12.0
 74
     0
 49
-3.0
 74
     0
 49
0.0
 74
     0
 49
-3.0
 74
     0
 49
0.0
 74
     0
 49
-3.0
 74
     0
 49
0.0
 74
     0
 49
-3.0
 74
     0
  0
LTYPE
  5
AD
330
5
100
AcDbSymbolTableRecord
100
AcDbLinetypeTableRecord
  2
FENCELINE1
 70
     0
  3
Fenceline circle ----0-----0----0-----0----0---
 72
    65
 73
     4
 40
36.83
 49
6.349999999999999
 74
     0
 49
-2.54
 74
     4
 75
   133
340
AC
 46
2.54
 50
0.0
 44
-2.54
 45
0.0
 49
-2.54
 74
     0
 49
25.4
 74
     0
  0
LTYPE
  5
AE
330
5
100
AcDbSymbolTableRecord
100
AcDbLinetypeTableRecord
  2
FENCELINE2
 70
     0
  3
Fenceline square ----[]-----[]----[]-----[]----
 72
    65
 73
     4
 40
36.83
 49
6.349999999999999
 74
     0
 49
-2.54
 74
     4
 75
   132
340
AC
 46
2.54
 50
0.0
 44
-2.54
 45
0.0
 49
-2.54
 74
     0
 49
25.4
 74
     0
  0
LTYPE
  5
AF
330
5
100
AcDbSymbolTableRecord
100
AcDbLinetypeTableRecord
  2
TRACKS
 70
     0
  3
Tracks -|-|-|-|-|-|-|-|-|-|-|-|-|-|-|-|-|-|-|-|
 72
    65
 73
     2
 40
7.62
 49
3.81
 74
     4
 75
   130
340
AC
 46
6.349999999999999
 50
0.0
 44
0.0
 45
0.0
 49
3.81
 74
     0
  0
LTYPE
  5
B0
330
5
100
AcDbSymbolTableRecord
100
AcDbLinetypeTableRecord
  2
BATTING
 70
     0
  3
Batting SSSSSSSSSSSSSSSSSSSSSSSSSSSSSSSSSSSSSSS
 72
    65
 73
     4
 40
10.16254
 49
0.00254
 74
     0
 49
-2.54
 74
     4
 75
   134
340
AC
 46
2.54
 50
0.0
 44
-2.54
 45
0.0
 49
-5.08
 74
     4
 75
   134
340
AC
 46
2.54
 50
180.0
 44
2.54
 45
0.0
 49
-2.54
 74
     0
  0
LTYPE
  5
B1
330
5
100
AcDbSymbolTableRecord
100
AcDbLinetypeTableRecord
  2
HOT_WATER_SUPPLY
 70
     0
  3
Hot water supply ---- HW ---- HW ---- HW ----
 72
    65
 73
     3
 40
22.86
 49
12.7
 74
     0
 49
-5.08
 74
     2
 75
     0
340
55
 46
2.54
 50
0.0
 44
-2.54
 45
-1.27
  9
HW
 49
-5.08
 74
     0
  0
LTYPE
  5
B2
330
5
100
AcDbSymbolTableRecord
100
AcDbLinetypeTableRecord
  2
GAS_LINE
 70
     0
  3
Gas line ----GAS----GAS----GAS----GAS----GAS---
 72
    65
 73
     3
 40
24.13
 49
12.7
 74
     0
 49
-5.08
 74
     2
 75
     0
340
55
 46
2.54
 50
0.0
 44
-2.54
 45
-1.27
  9
GAS
 49
-6.349999999999999
 74
     0
  0
LTYPE
  5
B3
330
5
100
AcDbSymbolTableRecord
100
AcDbLinetypeTableRecord
  2
ZIGZAG
 70
     0
  3
Zig zag /\/\/\/\/\/\/\/\/\/\/\/\/\/\/\/\/\/\/\/
 72
    65
 73
     4
 40
20.32254
 49
0.00254
 74
     0
 49
-5.08
 74
     4
 75
   131
340
AC
 46
5.08
 50
0.0
 44
-5.08
 45
0.0
 49
-10.16
 74
     4
 75
   131
340
AC
 46
5.08
 50
180.0
 44
5.08
 45
0.0
 49
-5.08
 74
     0
  0
ENDTAB
  0
TABLE
  2
LAYER
  5
2
330
0
100
AcDbSymbolTable
 70
    27
  0
LAYER
  5
54
330
2
100
AcDbSymbolTableRecord
100
AcDbLayerTableRecord
  2
0
 70
     0
 62
     7
  6
Continuous
370
    -3
390
F
347
21
  0
LAYER
  5
B9
330
2
100
AcDbSymbolTableRecord
100
AcDbLayerTableRecord
  2
Center Mark (ISO)
 70
     0
 62
     7
  6
Continuous
370
    25
390
F
347
21
  0
LAYER
  5
BA
330
2
100
AcDbSymbolTableRecord
100
AcDbLayerTableRecord
  2
Centerline (ISO)
 70
     0
 62
     7
  6
Continuous
370
    25
390
F
347
21
  0
LAYER
  5
BC
330
2
100
AcDbSymbolTableRecord
100
AcDbLayerTableRecord
  2
Dimension (ISO)
 70
     0
 62
     7
  6
Continuous
370
    25
390
F
347
21
  0
LAYER
  5
BE
330
2
100
AcDbSymbolTableRecord
100
AcDbLayerTableRecord
  2
Hidden (ISO)
 70
     0
 62
     7
  6
DASHED
370
    35
390
F
347
21
  0
LAYER
  5
C5
330
2
100
AcDbSymbolTableRecord
100
AcDbLayerTableRecord
  2
Symbol (ISO)
 70
     0
 62
     7
  6
Continuous
370
    25
390
F
347
21
  0
LAYER
  5
C8
330
2
100
AcDbSymbolTableRecord
100
AcDbLayerTableRecord
  2
Visible (ISO)
 70
     0
 62
     7
  6
Continuous
370
    50
390
F
347
21
  0
LAYER
  5
16D
330
2
100
AcDbSymbolTableRecord
100
AcDbLayerTableRecord
  2
Defpoints
 70
     0
 62
     7
  6
Continuous
290
     0
370
    -3
390
F
347
21
  0
ENDTAB
  0
TABLE
  2
STYLE
  5
3
330
0
100
AcDbSymbolTable
 70
     5
  0
STYLE
  5
55
330
3
100
AcDbSymbolTableRecord
100
AcDbTextStyleTableRecord
  2
Standard
 70
     0
 40
0.0
 41
1.0
 50
0.0
 71
     0
 42
0.2
  3
isocpeur.ttf
  4

1001
ACAD
1000
ISOCPEUR
1071
      256
  0
STYLE
  5
5A
330
3
100
AcDbSymbolTableRecord
100
AcDbTextStyleTableRecord
  2
Annotative
 70
     0
 40
0.0
 41
1.0
 50
0.0
 71
     0
 42
0.2
  3
txt
  4

1001
AcadAnnotative
1000
AnnotativeData
1002
{
1070
     1
1070
     1
1002
}
  0
STYLE
  5
AC
330
3
100
AcDbSymbolTableRecord
100
AcDbTextStyleTableRecord
  2

 70
     1
 40
0.0
 41
1.0
 50
0.0
 71
     0
 42
0.2
  3
ltypeshp.shx
  4

  0
STYLE
  5
CD
330
3
100
AcDbSymbolTableRecord
100
AcDbTextStyleTableRecord
  2
Label Text (DIN)
 70
     0
 40
0.0
 41
1.0
 50
0.0
 71
     0
 42
0.2
  3
isocpeur.ttf
  4

1001
ACAD
1000
ISOCPEUR
1071
      256
  0
STYLE
  5
CE
330
3
100
AcDbSymbolTableRecord
100
AcDbTextStyleTableRecord
  2
Note Text (DIN)
 70
     0
 40
0.0
 41
1.0
 50
0.0
 71
     0
 42
0.2
  3
isocpeur.ttf
  4

1001
ACAD
1000
ISOCPEUR
1071
      256
  0
ENDTAB
  0
TABLE
  2
VIEW
  5
6
330
0
100
AcDbSymbolTable
 70
     0
  0
ENDTAB
  0
TABLE
  2
UCS
  5
7
330
0
100
AcDbSymbolTable
 70
     0
  0
ENDTAB
  0
TABLE
  2
APPID
  5
9
330
0
100
AcDbSymbolTable
 70
     2
  0
APPID
  5
56
330
9
100
AcDbSymbolTableRecord
100
AcDbRegAppTableRecord
  2
ACAD
 70
     0
  0
APPID
  5
5E
330
9
100
AcDbSymbolTableRecord
100
AcDbRegAppTableRecord
  2
AcadAnnotative
 70
     0
  0
ENDTAB
  0
TABLE
  2
DIMSTYLE
  5
A
330
0
100
AcDbSymbolTable
 70
    11
100
AcDbDimStyleTable
 71
     2
340
D3
340
58
  0
DIMSTYLE
105
58
330
A
100
AcDbSymbolTableRecord
100
AcDbDimStyleTableRecord
  2
Standard
 70
     0
340
55
  0
DIMSTYLE
105
59
330
A
100
AcDbSymbolTableRecord
100
AcDbDimStyleTableRecord
  2
Annotative
 70
     0
340
55
1001
AcadAnnotative
1000
AnnotativeData
1002
{
1070
     1
1070
     1
1002
}
  0
DIMSTYLE
105
CF
330
A
100
AcDbSymbolTableRecord
100
AcDbDimStyleTableRecord
  2
Default - Method 2a (DIN)
 70
     0
 40
0.5
 41
2.5
 42
0.8
 43
5.999999999999999
 44
3.174999999999999
 45
0.00000001
 46
10.0
 77
     1
 78
     8
 79
     2
140
3.5
143
0.03937
147
0.8
170
     1
171
     3
172
     1
176
   256
177
   256
178
   256
179
     2
271
     2
272
     2
274
     3
278
    44
284
     8
286
     8
340
CE
371
    -1
372
    -1
  0
DIMSTYLE
105
D0
330
A
100
AcDbSymbolTableRecord
100
AcDbDimStyleTableRecord
  2
Default - Method 2a (DIN)$7
 70
     0
 40
0.5
 41
2.5
 42
0.8
 43
5.999999999999999
 44
3.174999999999999
 45
0.00000001
 46
10.0
 77
     1
 78
     8
 79
     2
140
3.5
143
0.03937
147
0.8
170
     1
171
     3
172
     1
176
   256
177
   256
178
   256
179
     2
271
     2
272
     2
274
     3
278
    44
284
     8
286
     8
340
CE
371
    -1
372
    -1
  0
DIMSTYLE
105
D1
330
A
100
AcDbSymbolTableRecord
100
AcDbDimStyleTableRecord
  2
Default - Method 2b (DIN)
 70
     0
 40
0.5
 41
2.5
 42
0.0
 43
5.999999999999999
 44
3.174999999999999
 45
0.00000001
 46
10.0
 77
     1
 78
     8
 79
     2
140
3.5
143
0.03937
147
0.8
171
     3
172
     1
176
   256
177
   256
178
   256
271
     2
272
     2
274
     3
278
    44
284
     8
286
     8
340
CE
371
    -1
372
    -1
  0
DIMSTYLE
105
D2
330
A
100
AcDbSymbolTableRecord
100
AcDbDimStyleTableRecord
  2
Default - Method 2b (DIN)$7
 70
     0
 40
0.5
 41
2.5
 42
0.0
 43
5.999999999999999
 44
3.174999999999999
 45
0.00000001
 46
10.0
 77
     1
 78
     8
 79
     2
140
3.5
143
0.03937
147
0.8
171
     3
172
     1
176
   256
177
   256
178
   256
271
     2
272
     2
274
     3
278
    44
284
     8
286
     8
340
CE
371
    -1
372
    -1
  0
DIMSTYLE
105
D3
102
{ACAD_REACTORS
330
16C
330
243
330
319
330
3EF
330
4D1
330
5AA
330
68C
330
76E
330
844
102
}
330
A
100
AcDbSymbolTableRecord
100
AcDbDimStyleTableRecord
  2
Default (DIN)
 70
     0
 40
0.5
 41
2.5
 42
0.8
 43
5.999999999999999
 44
3.174999999999999
 45
0.00000001
 46
10.0
 73
     0
 74
     0
 77
     1
140
3.5
143
0.03937
147
0.8
171
     3
172
     1
176
   256
177
   256
178
   256
271
     0
272
     2
274
     3
278
    44
340
CE
371
    -1
372
    -1
  0
DIMSTYLE
105
D4
330
A
100
AcDbSymbolTableRecord
100
AcDbDimStyleTableRecord
  2
Default (DIN)$7
 70
     0
 40
0.5
 41
2.5
 42
0.8
 43
5.999999999999999
 44
3.174999999999999
 45
0.00000001
 46
10.0
 73
     0
 74
     0
 77
     1
140
3.5
143
0.03937
147
0.8
171
     3
172
     1
176
   256
177
   256
178
   256
271
     0
272
     2
274
     3
278
    44
340
CE
371
    -1
372
    -1
  0
DIMSTYLE
105
D5
330
A
100
AcDbSymbolTableRecord
100
AcDbDimStyleTableRecord
  2
Alternate (ISO)
 70
     0
 40
0.5
 41
2.5
340
55
342
D6
  0
DIMSTYLE
105
E8
330
A
100
AcDbSymbolTableRecord
100
AcDbDimStyleTableRecord
  2
Datum (ISO)
 70
     0
 40
0.5
 41
2.5
340
55
342
D6
  0
DIMSTYLE
105
F7
330
A
100
AcDbSymbolTableRecord
100
AcDbDimStyleTableRecord
  2
Large (ISO)
 70
     0
 40
0.5
 41
5.0
340
55
342
D6
  0
ENDTAB
  0
TABLE
  2
BLOCK_RECORD
  5
1
330
0
100
AcDbSymbolTable
 70
    13
  0
BLOCK_RECORD
  5
70
330
1
100
AcDbSymbolTableRecord
100
AcDbBlockTableRecord
  2
*Model_Space
340
73
 70
     0
280
     1
281
     0
  0
BLOCK_RECORD
  5
6C
330
1
100
AcDbSymbolTableRecord
100
AcDbBlockTableRecord
  2
*Paper_Space
340
6F
 70
     0
280
     1
281
     0
  0
BLOCK_RECORD
  5
74
330
1
100
AcDbSymbolTableRecord
100
AcDbBlockTableRecord
  2
*Paper_Space0
340
77
 70
     0
280
     1
281
     0
  0
BLOCK_RECORD
  5
D6
330
1
100
AcDbSymbolTableRecord
100
AcDbBlockTableRecord
  2
_Closed
340
0
 70
     0
280
     1
281
     0
  0
BLOCK_RECORD
  5
DD
330
1
100
AcDbSymbolTableRecord
100
AcDbBlockTableRecord
  2
DatumFilled45
340
0
 70
     0
280
     1
281
     0
  0
BLOCK_RECORD
  5
E9
330
1
100
AcDbSymbolTableRecord
100
AcDbBlockTableRecord
  2
Filled-1
340
0
 70
     0
280
     1
281
     0
  0
BLOCK_RECORD
  5
16E
330
1
100
AcDbSymbolTableRecord
100
AcDbBlockTableRecord
  2
*D4
340
0
 70
     0
280
     1
281
     0
  0
BLOCK_RECORD
  5
244
330
1
100
AcDbSymbolTableRecord
100
AcDbBlockTableRecord
  2
*D5
340
0
 70
     0
280
     1
281
     0
  0
BLOCK_RECORD
  5
31A
330
1
100
AcDbSymbolTableRecord
100
AcDbBlockTableRecord
  2
*D6
340
0
 70
     0
280
     1
281
     0
  0
BLOCK_RECORD
  5
3F0
330
1
100
AcDbSymbolTableRecord
100
AcDbBlockTableRecord
  2
*D7
340
0
 70
     0
280
     1
281
     0
  0
BLOCK_RECORD
  5
4D2
330
1
100
AcDbSymbolTableRecord
100
AcDbBlockTableRecord
  2
*D8
340
0
 70
     0
280
     1
281
     0
  0
BLOCK_RECORD
  5
5AB
330
1
100
AcDbSymbolTableRecord
100
AcDbBlockTableRecord
  2
*D9
340
0
 70
     0
280
     1
281
     0
  0
BLOCK_RECORD
  5
68D
330
1
100
AcDbSymbolTableRecord
100
AcDbBlockTableRecord
  2
*D10
340
0
 70
     0
280
     1
281
     0
  0
BLOCK_RECORD
  5
76F
330
1
100
AcDbSymbolTableRecord
100
AcDbBlockTableRecord
  2
*D11
340
0
 70
     0
280
     1
281
     0
  0
BLOCK_RECORD
  5
845
330
1
100
AcDbSymbolTableRecord
100
AcDbBlockTableRecord
  2
*D12
340
0
 70
     0
280
     1
281
     0
  0
ENDTAB
  0
ENDSEC
  0
SECTION
  2
BLOCKS
  0
BLOCK
  5
71
330
70
100
AcDbEntity
  8
0
100
AcDbBlockBegin
  2
*Model_Space
 70
     0
 10
0.0
 20
0.0
 30
0.0
  3
*Model_Space
  1

  0
ENDBLK
  5
72
330
70
100
AcDbEntity
  8
0
100
AcDbBlockEnd
  0
BLOCK
  5
6D
330
6C
100
AcDbEntity
 67
     1
  8
0
100
AcDbBlockBegin
  2
*Paper_Space
 70
     0
 10
0.0
 20
0.0
 30
0.0
  3
*Paper_Space
  1

  0
ENDBLK
  5
6E
330
6C
100
AcDbEntity
 67
     1
  8
0
100
AcDbBlockEnd
  0
BLOCK
  5
75
330
74
100
AcDbEntity
 67
     1
  8
0
100
AcDbBlockBegin
  2
*Paper_Space0
 70
     0
 10
0.0
 20
0.0
 30
0.0
  3
*Paper_Space0
  1

  0
ENDBLK
  5
76
330
74
100
AcDbEntity
 67
     1
  8
0
100
AcDbBlockEnd
  0
BLOCK
  5
DB
330
D6
100
AcDbEntity
  8
0
100
AcDbBlockBegin
  2
_Closed
 70
     0
 10
0.0
 20
0.0
 30
0.0
  3
_Closed
  1

  0
LINE
  5
D7
330
D6
100
AcDbEntity
  8
0
  6
ByBlock
 62
     0
370
    -2
100
AcDbLine
 10
-1.0
 20
0.1666666666666666
 30
0.0
 11
0.0
 21
0.0
 31
0.0
  0
LINE
  5
D8
330
D6
100
AcDbEntity
  8
0
  6
ByBlock
 62
     0
370
    -2
100
AcDbLine
 10
0.0
 20
0.0
 30
0.0
 11
-1.0
 21
-0.1666666666666666
 31
0.0
  0
LINE
  5
D9
330
D6
100
AcDbEntity
  8
0
  6
ByBlock
 62
     0
370
    -2
100
AcDbLine
 10
-1.0
 20
0.1666666666666666
 30
0.0
 11
-1.0
 21
-0.1666666666666666
 31
0.0
  0
LINE
  5
DA
330
D6
100
AcDbEntity
  8
0
  6
ByBlock
 62
     0
370
    -2
100
AcDbLine
 10
0.0
 20
0.0
 30
0.0
 11
-1.0
 21
0.0
 31
0.0
  0
ENDBLK
  5
DC
330
D6
100
AcDbEntity
  8
0
100
AcDbBlockEnd
  0
BLOCK
  5
DE
330
DD
100
AcDbEntity
  8
0
100
AcDbBlockBegin
  2
DatumFilled45
 70
     0
 10
0.0
 20
0.0
 30
0.0
  3
DatumFilled45
  1

  0
POLYLINE
  5
E0
330
DD
100
AcDbEntity
  8
0
 62
     0
100
AcDb2dPolyline
 66
     1
 10
0.0
 20
0.0
 30
0.0
 70
   128
  0
VERTEX
  5
E1
330
E0
100
AcDbEntity
  8
0
 62
     0
100
AcDbVertex
100
AcDb2dVertex
 10
0.0
 20
1.0
 30
0.0
  0
VERTEX
  5
E2
330
E0
100
AcDbEntity
  8
0
 62
     0
100
AcDbVertex
100
AcDb2dVertex
 10
0.0
 20
-1.0
 30
0.0
  0
VERTEX
  5
E4
330
E0
100
AcDbEntity
  8
0
 62
     0
100
AcDbVertex
100
AcDb2dVertex
 10
-1.0
 20
0.0
 30
0.0
  0
VERTEX
  5
E5
330
E0
100
AcDbEntity
  8
0
 62
     0
100
AcDbVertex
100
AcDb2dVertex
 10
0.0
 20
1.0
 30
0.0
  0
SEQEND
  5
E3
330
E0
100
AcDbEntity
  8
0
 62
     0
  0
SOLID
  5
E7
330
DD
100
AcDbEntity
  8
0
 62
     0
100
AcDbTrace
 10
0.0
 20
1.0
 30
0.0
 11
0.0
 21
-1.0
 31
0.0
 12
-1.0
 22
0.0
 32
0.0
 13
0.0
 23
1.0
 33
0.0
  0
ENDBLK
  5
DF
330
DD
100
AcDbEntity
  8
0
100
AcDbBlockEnd
  0
BLOCK
  5
EA
330
E9
100
AcDbEntity
  8
0
100
AcDbBlockBegin
  2
Filled-1
 70
     0
 10
0.0
 20
0.0
 30
0.0
  3
Filled-1
  1

  0
LINE
  5
EC
330
E9
100
AcDbEntity
  8
0
 62
     0
100
AcDbLine
 10
-1.0
 20
0.0
 30
0.0
 11
0.0
 21
0.0
 31
0.0
  0
POLYLINE
  5
ED
330
E9
100
AcDbEntity
  8
0
 62
     0
100
AcDb2dPolyline
 66
     1
 10
0.0
 20
0.0
 30
0.0
 70
   128
  0
VERTEX
  5
EE
330
ED
100
AcDbEntity
  8
0
 62
     0
100
AcDbVertex
100
AcDb2dVertex
 10
-1.0
 20
-0.1
 30
0.0
  0
VERTEX
  5
EF
330
ED
100
AcDbEntity
  8
0
 62
     0
100
AcDbVertex
100
AcDb2dVertex
 10
0.0
 20
0.0
 30
0.0
  0
VERTEX
  5
F1
330
ED
100
AcDbEntity
  8
0
 62
     0
100
AcDbVertex
100
AcDb2dVertex
 10
-1.0
 20
0.1
 30
0.0
  0
VERTEX
  5
F2
330
ED
100
AcDbEntity
  8
0
 62
     0
100
AcDbVertex
100
AcDb2dVertex
 10
-1.0
 20
-0.1
 30
0.0
  0
SEQEND
  5
F0
330
ED
100
AcDbEntity
  8
0
 62
     0
  0
SOLID
  5
F3
330
E9
100
AcDbEntity
  8
0
 62
     0
100
AcDbTrace
 10
-1.0
 20
-0.1
 30
0.0
 11
0.0
 21
0.0
 31
0.0
 12
-1.0
 22
0.1
 32
0.0
 13
-1.0
 23
-0.1
 33
0.0
  0
LINE
  5
F4
330
E9
100
AcDbEntity
  8
0
 62
     0
100
AcDbLine
 10
-1.0
 20
-0.1
 30
0.0
 11
0.0
 21
0.0
 31
0.0
  0
LINE
  5
F5
330
E9
100
AcDbEntity
  8
0
 62
     0
100
AcDbLine
 10
0.0
 20
0.0
 30
0.0
 11
-1.0
 21
0.1
 31
0.0
  0
LINE
  5
F6
330
E9
100
AcDbEntity
  8
0
 62
     0
100
AcDbLine
 10
-1.0
 20
0.1
 30
0.0
 11
-1.0
 21
-0.1
 31
0.0
  0
ENDBLK
  5
EB
330
E9
100
AcDbEntity
  8
0
100
AcDbBlockEnd
  0
BLOCK
  5
16F
330
16E
100
AcDbEntity
  8
0
100
AcDbBlockBegin
  2
*D4
 70
     1
 10
0.0
 20
0.0
 30
0.0
  3
*D4
  1

  0
LINE
  5
23A
330
16E
100
AcDbEntity
  8
Dimension (ISO)
440
 16777216
100
AcDbLine
 10
111.5119083425524
 20
31.48358953517599
 30
0.0
 11
111.5119083425524
 21
21.71706715411936
 31
0.0
  0
LINE
  5
23B
330
16E
100
AcDbEntity
  8
Dimension (ISO)
440
 16777216
100
AcDbLine
 10
71.51190834255237
 20
33.03358953517598
 30
0.0
 11
71.51190834255237
 21
21.71706715411936
 31
0.0
  0
LINE
  5
23C
330
16E
100
AcDbEntity
  8
Dimension (ISO)
440
 16777216
100
AcDbLine
 10
110.2619083425524
 20
23.30456715411936
 30
0.0
 11
72.76190834255237
 21
23.30456715411936
 31
0.0
  0
SOLID
  5
23D
330
16E
100
AcDbEntity
  8
Dimension (ISO)
440
 16777216
100
AcDbTrace
 10
110.2619083425524
 20
23.51290048745269
 30
0.0
 11
110.2619083425524
 21
23.09623382078603
 31
0.0
 12
111.5119083425524
 22
23.30456715411936
 32
0.0
 13
111.5119083425524
 23
23.30456715411936
 33
0.0
  0
SOLID
  5
23E
330
16E
100
AcDbEntity
  8
Dimension (ISO)
440
 16777216
100
AcDbTrace
 10
72.76190834255237
 20
23.51290048745269
 30
0.0
 11
72.76190834255237
 21
23.09623382078603
 31
0.0
 12
71.51190834255237
 22
23.30456715411936
 32
0.0
 13
71.51190834255237
 23
23.30456715411936
 33
0.0
  0
MTEXT
  5
23F
330
16E
100
AcDbEntity
  8
Dimension (ISO)
440
 16777216
100
AcDbMText
 10
90.37440837857127
 20
25.45456715411936
 30
0.0
 40
1.75
 41
0.0
 46
0.0
 71
     1
 72
     1
  1
\A1;40
  7
Note Text (DIN)
 73
     1
 44
1.0
  0
POINT
  5
240
330
16E
100
AcDbEntity
  8
Defpoints
 62
     0
440
 16777216
100
AcDbPoint
 10
111.5119083425524
 20
31.883589535176
 30
0.0
  0
POINT
  5
241
330
16E
100
AcDbEntity
  8
Defpoints
 62
     0
440
 16777216
100
AcDbPoint
 10
71.51190834255237
 20
33.43358953517598
 30
0.0
  0
POINT
  5
242
330
16E
100
AcDbEntity
  8
Defpoints
 62
     0
440
 16777216
100
AcDbPoint
 10
71.51190834255237
 20
23.30456715411936
 30
0.0
  0
ENDBLK
  5
170
330
16E
100
AcDbEntity
  8
0
100
AcDbBlockEnd
  0
BLOCK
  5
245
330
244
100
AcDbEntity
  8
0
100
AcDbBlockBegin
  2
*D5
 70
     1
 10
0.0
 20
0.0
 30
0.0
  3
*D5
  1

  0
LINE
  5
310
330
244
100
AcDbEntity
  8
Dimension (ISO)
440
 16777216
100
AcDbLine
 10
111.5119083425524
 20
31.48358953517599
 30
0.0
 11
111.5119083425524
 21
17.19780314532122
 31
0.0
  0
LINE
  5
311
330
244
100
AcDbEntity
  8
Dimension (ISO)
440
 16777216
100
AcDbLine
 10
59.51190834255237
 20
36.46696474417189
 30
0.0
 11
59.51190834255237
 21
17.19780314532123
 31
0.0
  0
LINE
  5
312
330
244
100
AcDbEntity
  8
Dimension (ISO)
440
 16777216
100
AcDbLine
 10
110.2619083425524
 20
18.78530314532122
 30
0.0
 11
60.76190834255237
 21
18.78530314532122
 31
0.0
  0
SOLID
  5
313
330
244
100
AcDbEntity
  8
Dimension (ISO)
440
 16777216
100
AcDbTrace
 10
110.2619083425524
 20
18.99363647865456
 30
0.0
 11
110.2619083425524
 21
18.57696981198789
 31
0.0
 12
111.5119083425524
 22
18.78530314532122
 32
0.0
 13
111.5119083425524
 23
18.78530314532122
 33
0.0
  0
SOLID
  5
314
330
244
100
AcDbEntity
  8
Dimension (ISO)
440
 16777216
100
AcDbTrace
 10
60.76190834255237
 20
18.99363647865456
 30
0.0
 11
60.76190834255237
 21
18.57696981198789
 31
0.0
 12
59.51190834255237
 22
18.78530314532122
 32
0.0
 13
59.51190834255237
 23
18.78530314532122
 33
0.0
  0
MTEXT
  5
315
330
244
100
AcDbEntity
  8
Dimension (ISO)
440
 16777216
100
AcDbMText
 10
84.4619083758006
 20
20.93530314532122
 30
0.0
 40
1.75
 41
0.0
 46
0.0
 71
     1
 72
     1
  1
\A1;52
  7
Note Text (DIN)
 73
     1
 44
1.0
  0
POINT
  5
316
330
244
100
AcDbEntity
  8
Defpoints
 62
     0
440
 16777216
100
AcDbPoint
 10
111.5119083425524
 20
31.883589535176
 30
0.0
  0
POINT
  5
317
330
244
100
AcDbEntity
  8
Defpoints
 62
     0
440
 16777216
100
AcDbPoint
 10
59.51190834255237
 20
36.86696474417188
 30
0.0
  0
POINT
  5
318
330
244
100
AcDbEntity
  8
Defpoints
 62
     0
440
 16777216
100
AcDbPoint
 10
59.51190834255237
 20
18.78530314532122
 30
0.0
  0
ENDBLK
  5
246
330
244
100
AcDbEntity
  8
0
100
AcDbBlockEnd
  0
BLOCK
  5
31B
330
31A
100
AcDbEntity
  8
0
100
AcDbBlockBegin
  2
*D6
 70
     1
 10
0.0
 20
0.0
 30
0.0
  3
*D6
  1

  0
LINE
  5
3E6
330
31A
100
AcDbEntity
  8
Dimension (ISO)
440
 16777216
100
AcDbLine
 10
71.51190834256206
 20
59.81188989263745
 30
0.0
 11
71.51190834256206
 21
56.3647578882384
 31
0.0
  0
LINE
  5
3E7
330
31A
100
AcDbEntity
  8
Dimension (ISO)
440
 16777216
100
AcDbLine
 10
91.51190834256206
 20
68.10973402392153
 30
0.0
 11
91.51190834256206
 21
56.3647578882384
 31
0.0
  0
LINE
  5
3E8
330
31A
100
AcDbEntity
  8
Dimension (ISO)
440
 16777216
100
AcDbLine
 10
72.76190834256206
 20
57.95225788823841
 30
0.0
 11
90.26190834256206
 21
57.95225788823841
 31
0.0
  0
SOLID
  5
3E9
330
31A
100
AcDbEntity
  8
Dimension (ISO)
440
 16777216
100
AcDbTrace
 10
72.76190834256206
 20
58.16059122157174
 30
0.0
 11
72.76190834256206
 21
57.74392455490507
 31
0.0
 12
71.51190834256206
 22
57.95225788823841
 32
0.0
 13
71.51190834256206
 23
57.95225788823841
 33
0.0
  0
SOLID
  5
3EA
330
31A
100
AcDbEntity
  8
Dimension (ISO)
440
 16777216
100
AcDbTrace
 10
90.26190834256206
 20
58.16059122157174
 30
0.0
 11
90.26190834256206
 21
57.74392455490507
 31
0.0
 12
91.51190834256206
 22
57.95225788823841
 32
0.0
 13
91.51190834256206
 23
57.95225788823841
 33
0.0
  0
MTEXT
  5
3EB
330
31A
100
AcDbEntity
  8
Dimension (ISO)
440
 16777216
100
AcDbMText
 10
80.46190837581027
 20
60.10225788823841
 30
0.0
 40
1.75
 41
0.0
 46
0.0
 71
     1
 72
     1
  1
\A1;20
  7
Note Text (DIN)
 73
     1
 44
1.0
  0
POINT
  5
3EC
330
31A
100
AcDbEntity
  8
Defpoints
 62
     0
440
 16777216
100
AcDbPoint
 10
71.51190834256206
 20
60.21188989263745
 30
0.0
  0
POINT
  5
3ED
330
31A
100
AcDbEntity
  8
Defpoints
 62
     0
440
 16777216
100
AcDbPoint
 10
91.51190834256206
 20
68.50973402392154
 30
0.0
  0
POINT
  5
3EE
330
31A
100
AcDbEntity
  8
Defpoints
 62
     0
440
 16777216
100
AcDbPoint
 10
91.51190834256206
 20
57.95225788823841
 30
0.0
  0
ENDBLK
  5
31C
330
31A
100
AcDbEntity
  8
0
100
AcDbBlockEnd
  0
BLOCK
  5
3F1
330
3F0
100
AcDbEntity
  8
0
100
AcDbBlockBegin
  2
*D7
 70
     1
 10
0.0
 20
0.0
 30
0.0
  3
*D7
  1

  0
LINE
  5
4C8
330
3F0
100
AcDbEntity
  8
Dimension (ISO)
440
 16777216
100
AcDbLine
 10
96.51190834256206
 20
82.10973402391859
 30
0.0
 11
96.51190834256206
 21
87.59723402391861
 31
0.0
  0
LINE
  5
4C9
330
3F0
100
AcDbEntity
  8
Dimension (ISO)
440
 16777216
100
AcDbLine
 10
111.511908342562
 20
81.40973402391862
 30
0.0
 11
111.511908342562
 21
87.59723402391861
 31
0.0
  0
LINE
  5
4CA
330
3F0
100
AcDbEntity
  8
Dimension (ISO)
440
 16777216
100
AcDbLine
 10
97.76190834256206
 20
86.00973402391861
 30
0.0
 11
110.261908342562
 21
86.00973402391861
 31
0.0
  0
SOLID
  5
4CB
330
3F0
100
AcDbEntity
  8
Dimension (ISO)
440
 16777216
100
AcDbTrace
 10
97.76190834256206
 20
86.21806735725193
 30
0.0
 11
97.76190834256206
 21
85.80140069058527
 31
0.0
 12
96.51190834256206
 22
86.00973402391861
 32
0.0
 13
96.51190834256206
 23
86.00973402391861
 33
0.0
  0
SOLID
  5
4CC
330
3F0
100
AcDbEntity
  8
Dimension (ISO)
440
 16777216
100
AcDbTrace
 10
110.261908342562
 20
86.21806735725193
 30
0.0
 11
110.261908342562
 21
85.80140069058527
 31
0.0
 12
111.511908342562
 22
86.00973402391861
 32
0.0
 13
111.511908342562
 23
86.00973402391861
 33
0.0
  0
MTEXT
  5
4CD
330
3F0
100
AcDbEntity
  8
Dimension (ISO)
440
 16777216
100
AcDbMText
 10
103.1369083702689
 20
88.15973402391861
 30
0.0
 40
1.75
 41
0.0
 46
0.0
 71
     1
 72
     1
  1
\A1;15
  7
Note Text (DIN)
 73
     1
 44
1.0
  0
POINT
  5
4CE
330
3F0
100
AcDbEntity
  8
Defpoints
 62
     0
440
 16777216
100
AcDbPoint
 10
96.51190834256206
 20
81.70973402391858
 30
0.0
  0
POINT
  5
4CF
330
3F0
100
AcDbEntity
  8
Defpoints
 62
     0
440
 16777216
100
AcDbPoint
 10
111.511908342562
 20
81.00973402391861
 30
0.0
  0
POINT
  5
4D0
330
3F0
100
AcDbEntity
  8
Defpoints
 62
     0
440
 16777216
100
AcDbPoint
 10
111.511908342562
 20
86.00973402391861
 30
0.0
  0
ENDBLK
  5
3F2
330
3F0
100
AcDbEntity
  8
0
100
AcDbBlockEnd
  0
BLOCK
  5
4D3
330
4D2
100
AcDbEntity
  8
0
100
AcDbBlockBegin
  2
*D8
 70
     1
 10
0.0
 20
0.0
 30
0.0
  3
*D8
  1

  0
LINE
  5
5A1
330
4D2
100
AcDbEntity
  8
Dimension (ISO)
440
 16777216
100
AcDbLine
 10
111.2119083425621
 20
81.7097340239186
 30
0.0
 11
119.6013295348872
 21
81.7097340239186
 31
0.0
  0
LINE
  5
5A2
330
4D2
100
AcDbEntity
  8
Dimension (ISO)
440
 16777216
100
AcDbLine
 10
111.2119083425621
 20
63.7097340239186
 30
0.0
 11
119.6013295348872
 21
63.70973402391859
 31
0.0
  0
LINE
  5
5A3
330
4D2
100
AcDbEntity
  8
Dimension (ISO)
440
 16777216
100
AcDbLine
 10
118.0138295348871
 20
80.4597340239186
 30
0.0
 11
118.0138295348871
 21
64.9597340239186
 31
0.0
  0
SOLID
  5
5A4
330
4D2
100
AcDbEntity
  8
Dimension (ISO)
440
 16777216
100
AcDbTrace
 10
117.8054962015538
 20
80.4597340239186
 30
0.0
 11
118.2221628682205
 21
80.4597340239186
 31
0.0
 12
118.0138295348871
 22
81.7097340239186
 32
0.0
 13
118.0138295348871
 23
81.7097340239186
 33
0.0
  0
SOLID
  5
5A5
330
4D2
100
AcDbEntity
  8
Dimension (ISO)
440
 16777216
100
AcDbTrace
 10
117.8054962015538
 20
64.9597340239186
 30
0.0
 11
118.2221628682205
 21
64.9597340239186
 31
0.0
 12
118.0138295348871
 22
63.70973402391859
 32
0.0
 13
118.0138295348871
 23
63.70973402391859
 33
0.0
  0
MTEXT
  5
5A6
330
4D2
100
AcDbEntity
  8
Dimension (ISO)
440
 16777216
100
AcDbMText
 10
114.9807809817801
 20
70.80209610214547
 30
0.0
 40
1.75
 41
0.0
 46
0.0
 71
     1
 72
     1
  1
\A1;\fAIGDT|b0|i0;\H1.7500;\ln\fISOCPEUR|b0|i0;\H1.7500;18
  7
Note Text (DIN)
 11
0.0000000000000001
 21
1.0
 31
0.0
 73
     1
 44
1.0
  0
POINT
  5
5A7
330
4D2
100
AcDbEntity
  8
Defpoints
 62
     0
440
 16777216
100
AcDbPoint
 10
110.811908342562
 20
81.7097340239186
 30
0.0
  0
POINT
  5
5A8
330
4D2
100
AcDbEntity
  8
Defpoints
 62
     0
440
 16777216
100
AcDbPoint
 10
110.811908342562
 20
63.7097340239186
 30
0.0
  0
POINT
  5
5A9
330
4D2
100
AcDbEntity
  8
Defpoints
 62
     0
440
 16777216
100
AcDbPoint
 10
118.0138295348871
 20
63.70973402391859
 30
0.0
  0
ENDBLK
  5
4D4
330
4D2
100
AcDbEntity
  8
0
100
AcDbBlockEnd
  0
BLOCK
  5
5AC
330
5AB
100
AcDbEntity
  8
0
100
AcDbBlockBegin
  2
*D9
 70
     1
 10
0.0
 20
0.0
 30
0.0
  3
*D9
  1

  0
LINE
  5
683
330
5AB
100
AcDbEntity
  8
Dimension (ISO)
440
 16777216
100
AcDbLine
 10
76.51190834256206
 20
82.60973402391858
 30
0.0
 11
76.51190834256206
 21
88.79723402391858
 31
0.0
  0
LINE
  5
684
330
5AB
100
AcDbEntity
  8
Dimension (ISO)
440
 16777216
100
AcDbLine
 10
66.51190834256206
 20
82.60973402391858
 30
0.0
 11
66.51190834256206
 21
88.79723402391858
 31
0.0
  0
LINE
  5
685
330
5AB
100
AcDbEntity
  8
Dimension (ISO)
440
 16777216
100
AcDbLine
 10
75.26190834256206
 20
87.20973402391857
 30
0.0
 11
67.76190834256206
 21
87.20973402391857
 31
0.0
  0
SOLID
  5
686
330
5AB
100
AcDbEntity
  8
Dimension (ISO)
440
 16777216
100
AcDbTrace
 10
75.26190834256206
 20
87.41806735725189
 30
0.0
 11
75.26190834256206
 21
87.00140069058525
 31
0.0
 12
76.51190834256206
 22
87.20973402391857
 32
0.0
 13
76.51190834256206
 23
87.20973402391857
 33
0.0
  0
SOLID
  5
687
330
5AB
100
AcDbEntity
  8
Dimension (ISO)
440
 16777216
100
AcDbTrace
 10
67.76190834256206
 20
87.41806735725189
 30
0.0
 11
67.76190834256206
 21
87.00140069058525
 31
0.0
 12
66.51190834256206
 22
87.20973402391857
 32
0.0
 13
66.51190834256206
 23
87.20973402391857
 33
0.0
  0
MTEXT
  5
688
330
5AB
100
AcDbEntity
  8
Dimension (ISO)
440
 16777216
100
AcDbMText
 10
68.90427044295441
 20
90.24278257702565
 30
0.0
 40
1.75
 41
0.0
 46
0.0
 71
     1
 72
     1
  1
\A1;\fAIGDT|b0|i0;\H1.7500;\ln\fISOCPEUR|b0|i0;\H1.7500;10\fISOCPEUR|b0|i0;\H1.7500;.1
  7
Note Text (DIN)
 73
     1
 44
1.0
  0
POINT
  5
689
330
5AB
100
AcDbEntity
  8
Defpoints
 62
     0
440
 16777216
100
AcDbPoint
 10
76.51190834256206
 20
82.20973402391857
 30
0.0
  0
POINT
  5
68A
330
5AB
100
AcDbEntity
  8
Defpoints
 62
     0
440
 16777216
100
AcDbPoint
 10
66.51190834256206
 20
82.20973402391857
 30
0.0
  0
POINT
  5
68B
330
5AB
100
AcDbEntity
  8
Defpoints
 62
     0
440
 16777216
100
AcDbPoint
 10
66.51190834256206
 20
87.20973402391857
 30
0.0
  0
ENDBLK
  5
5AD
330
5AB
100
AcDbEntity
  8
0
100
AcDbBlockEnd
  0
BLOCK
  5
68E
330
68D
100
AcDbEntity
  8
0
100
AcDbBlockBegin
  2
*D10
 70
     1
 10
0.0
 20
0.0
 30
0.0
  3
*D10
  1

  0
LINE
  5
765
330
68D
100
AcDbEntity
  8
Dimension (ISO)
440
 16777216
100
AcDbLine
 10
59.11190834256206
 20
77.70973402391956
 30
0.0
 11
54.36177111903167
 21
77.70973402391956
 31
0.0
  0
LINE
  5
766
330
68D
100
AcDbEntity
  8
Dimension (ISO)
440
 16777216
100
AcDbLine
 10
59.11190834256206
 20
67.70973402391956
 30
0.0
 11
54.36177111903167
 21
67.70973402391956
 31
0.0
  0
LINE
  5
767
330
68D
100
AcDbEntity
  8
Dimension (ISO)
440
 16777216
100
AcDbLine
 10
55.94927111903167
 20
76.45973402391956
 30
0.0
 11
55.94927111903167
 21
68.95973402391956
 31
0.0
  0
SOLID
  5
768
330
68D
100
AcDbEntity
  8
Dimension (ISO)
440
 16777216
100
AcDbTrace
 10
55.74093778569833
 20
76.45973402391956
 30
0.0
 11
56.157604452365
 21
76.45973402391956
 31
0.0
 12
55.94927111903167
 22
77.70973402391956
 32
0.0
 13
55.94927111903167
 23
77.70973402391956
 33
0.0
  0
SOLID
  5
769
330
68D
100
AcDbEntity
  8
Dimension (ISO)
440
 16777216
100
AcDbTrace
 10
55.74093778569833
 20
68.95973402391956
 30
0.0
 11
56.157604452365
 21
68.95973402391956
 31
0.0
 12
55.94927111903167
 22
67.70973402391956
 32
0.0
 13
55.94927111903167
 23
67.70973402391956
 33
0.0
  0
MTEXT
  5
76A
330
68D
100
AcDbEntity
  8
Dimension (ISO)
440
 16777216
100
AcDbMText
 10
53.79927111903167
 20
71.83473405162641
 30
0.0
 40
1.75
 41
0.0
 46
0.0
 71
     1
 72
     1
  1
\A1;10
  7
Note Text (DIN)
 11
0.0000000000000001
 21
1.0
 31
0.0
 73
     1
 44
1.0
  0
POINT
  5
76B
330
68D
100
AcDbEntity
  8
Defpoints
 62
     0
440
 16777216
100
AcDbPoint
 10
59.51190834256206
 20
77.70973402391956
 30
0.0
  0
POINT
  5
76C
330
68D
100
AcDbEntity
  8
Defpoints
 62
     0
440
 16777216
100
AcDbPoint
 10
59.51190834256206
 20
67.70973402391956
 30
0.0
  0
POINT
  5
76D
330
68D
100
AcDbEntity
  8
Defpoints
 62
     0
440
 16777216
100
AcDbPoint
 10
55.94927111903167
 20
67.70973402391956
 30
0.0
  0
ENDBLK
  5
68F
330
68D
100
AcDbEntity
  8
0
100
AcDbBlockEnd
  0
BLOCK
  5
770
330
76F
100
AcDbEntity
  8
0
100
AcDbBlockBegin
  2
*D11
 70
     1
 10
0.0
 20
0.0
 30
0.0
  3
*D11
  1

  0
LINE
  5
83B
330
76F
100
AcDbEntity
  8
Dimension (ISO)
440
 16777216
100
AcDbLine
 10
19.1998743327856
 20
30.18358953517598
 30
0.0
 11
13.0123743327856
 21
30.18358953517598
 31
0.0
  0
LINE
  5
83C
330
76F
100
AcDbEntity
  8
Dimension (ISO)
440
 16777216
100
AcDbLine
 10
19.1998743327856
 20
50.18358953517598
 30
0.0
 11
13.0123743327856
 21
50.18358953517599
 31
0.0
  0
LINE
  5
83D
330
76F
100
AcDbEntity
  8
Dimension (ISO)
440
 16777216
100
AcDbLine
 10
14.5998743327856
 20
31.43358953517598
 30
0.0
 11
14.5998743327856
 21
48.93358953517599
 31
0.0
  0
SOLID
  5
83E
330
76F
100
AcDbEntity
  8
Dimension (ISO)
440
 16777216
100
AcDbTrace
 10
14.39154099945227
 20
31.43358953517598
 30
0.0
 11
14.80820766611893
 21
31.43358953517598
 31
0.0
 12
14.5998743327856
 22
30.18358953517598
 32
0.0
 13
14.5998743327856
 23
30.18358953517598
 33
0.0
  0
SOLID
  5
83F
330
76F
100
AcDbEntity
  8
Dimension (ISO)
440
 16777216
100
AcDbTrace
 10
14.39154099945227
 20
48.93358953517599
 30
0.0
 11
14.80820766611894
 21
48.93358953517599
 31
0.0
 12
14.5998743327856
 22
50.18358953517599
 32
0.0
 13
14.5998743327856
 23
50.18358953517599
 33
0.0
  0
MTEXT
  5
840
330
76F
100
AcDbEntity
  8
Dimension (ISO)
440
 16777216
100
AcDbMText
 10
12.44987433278559
 20
39.1335895684242
 30
0.0
 40
1.75
 41
0.0
 46
0.0
 71
     1
 72
     1
  1
\A1;20
  7
Note Text (DIN)
 11
0.0000000000000001
 21
1.0
 31
0.0
 73
     1
 44
1.0
  0
POINT
  5
841
330
76F
100
AcDbEntity
  8
Defpoints
 62
     0
440
 16777216
100
AcDbPoint
 10
19.59987433278559
 20
30.18358953517598
 30
0.0
  0
POINT
  5
842
330
76F
100
AcDbEntity
  8
Defpoints
 62
     0
440
 16777216
100
AcDbPoint
 10
19.59987433278559
 20
50.18358953517598
 30
0.0
  0
POINT
  5
843
330
76F
100
AcDbEntity
  8
Defpoints
 62
     0
440
 16777216
100
AcDbPoint
 10
14.5998743327856
 20
50.18358953517599
 30
0.0
  0
ENDBLK
  5
771
330
76F
100
AcDbEntity
  8
0
100
AcDbBlockEnd
  0
BLOCK
  5
846
330
845
100
AcDbEntity
  8
0
100
AcDbBlockBegin
  2
*D12
 70
     1
 10
0.0
 20
0.0
 30
0.0
  3
*D12
  1

  0
LINE
  5
911
330
845
100
AcDbEntity
  8
Dimension (ISO)
440
 16777216
100
AcDbLine
 10
19.59987433278559
 20
29.78358953517599
 30
0.0
 11
19.59987433278559
 21
21.71706715411936
 31
0.0
  0
LINE
  5
912
330
845
100
AcDbEntity
  8
Dimension (ISO)
440
 16777216
100
AcDbLine
 10
39.59987433278559
 20
29.78358953517599
 30
0.0
 11
39.59987433278559
 21
21.71706715411936
 31
0.0
  0
LINE
  5
913
330
845
100
AcDbEntity
  8
Dimension (ISO)
440
 16777216
100
AcDbLine
 10
20.8498743327856
 20
23.30456715411936
 30
0.0
 11
38.34987433278559
 21
23.30456715411936
 31
0.0
  0
SOLID
  5
914
330
845
100
AcDbEntity
  8
Dimension (ISO)
440
 16777216
100
AcDbTrace
 10
20.8498743327856
 20
23.51290048745269
 30
0.0
 11
20.8498743327856
 21
23.09623382078603
 31
0.0
 12
19.59987433278559
 22
23.30456715411936
 32
0.0
 13
19.59987433278559
 23
23.30456715411936
 33
0.0
  0
SOLID
  5
915
330
845
100
AcDbEntity
  8
Dimension (ISO)
440
 16777216
100
AcDbTrace
 10
38.34987433278559
 20
23.51290048745269
 30
0.0
 11
38.34987433278559
 21
23.09623382078603
 31
0.0
 12
39.59987433278559
 22
23.30456715411936
 32
0.0
 13
39.59987433278559
 23
23.30456715411936
 33
0.0
  0
MTEXT
  5
916
330
845
100
AcDbEntity
  8
Dimension (ISO)
440
 16777216
100
AcDbMText
 10
28.54987436603381
 20
25.45456715411936
 30
0.0
 40
1.75
 41
0.0
 46
0.0
 71
     1
 72
     1
  1
\A1;20
  7
Note Text (DIN)
 73
     1
 44
1.0
  0
POINT
  5
917
330
845
100
AcDbEntity
  8
Defpoints
 62
     0
440
 16777216
100
AcDbPoint
 10
19.59987433278559
 20
30.18358953517598
 30
0.0
  0
POINT
  5
918
330
845
100
AcDbEntity
  8
Defpoints
 62
     0
440
 16777216
100
AcDbPoint
 10
39.59987433278559
 20
30.18358953517598
 30
0.0
  0
POINT
  5
919
330
845
100
AcDbEntity
  8
Defpoints
 62
     0
440
 16777216
100
AcDbPoint
 10
39.59987433278559
 20
23.30456715411936
 30
0.0
  0
ENDBLK
  5
847
330
845
100
AcDbEntity
  8
0
100
AcDbBlockEnd
  0
ENDSEC
  0
SECTION
  2
ENTITIES
  0
SPLINE
  5
F8
330
70
100
AcDbEntity
  8
Visible (ISO)
100
AcDbSpline
210
0.0
220
0.0
230
1.0
 70
    12
 71
     2
 72
     6
 73
     3
 74
     0
 42
0.000000001
 43
0.0000000001
 40
-11.39135300990488
 40
-11.39135300990488
 40
-11.39135300990488
 40
-7.703857115957103
 40
-7.703857115957103
 40
-7.703857115957103
 10
93.54309496269104
 20
50.18358953517598
 30
0.0
 41
3.298697012420168
 10
88.5581897302379
 20
46.73953243509054
 30
0.0
 41
3.981879533069723
 10
95.93455808772217
 20
50.18358953517598
 30
0.0
 41
3.981879533069725
  0
SPLINE
  5
F9
330
70
100
AcDbEntity
  8
Visible (ISO)
100
AcDbSpline
210
0.0
220
0.0
230
1.0
 70
    12
 71
     2
 72
     6
 73
     3
 74
     0
 42
0.000000001
 43
0.0000000001
 40
1.193179803138999
 40
1.193179803138999
 40
1.193179803138999
 40
4.676516384342
 40
4.676516384342
 40
4.676516384342
 10
93.54309495598137
 20
30.18358953517598
 30
0.0
 41
1.615432893254999
 10
97.62557786062039
 20
40.18358953517594
 30
0.0
 41
2.284567106744999
 10
93.54309495598137
 20
50.18358953517598
 30
0.0
 41
1.615432893254999
  0
SPLINE
  5
FA
330
70
100
AcDbEntity
  8
Visible (ISO)
100
AcDbSpline
210
0.0
220
0.0
230
1.0
 70
    12
 71
     2
 72
     6
 73
     3
 74
     0
 42
0.000000001
 43
0.0000000001
 40
4.016361222009316
 40
4.016361222009316
 40
4.016361222009316
 40
7.703857115957088
 40
7.703857115957088
 40
7.703857115957088
 10
93.54309496269104
 20
30.18358953517599
 30
0.0
 41
3.29869701242016
 10
88.55818973023794
 20
28.11211543761625
 30
0.0
 41
3.981879533069709
 10
95.93455808772217
 20
30.18358953517598
 30
0.0
 41
3.98187953306971
  0
LINE
  5
FB
330
70
100
AcDbEntity
  8
Visible (ISO)
100
AcDbLine
 10
96.51190834255238
 20
49.18358953517598
 30
0.0
 11
96.51190834255238
 21
31.18358953517598
 31
0.0
  0
CIRCLE
  5
FC
330
70
100
AcDbEntity
  8
Visible (ISO)
100
AcDbCircle
 10
71.51190834255237
 20
40.18358953517598
 30
0.0
 40
5.0
  0
CIRCLE
  5
FD
330
70
100
AcDbEntity
  8
Visible (ISO)
100
AcDbCircle
 10
71.51190834255237
 20
40.18358953517598
 30
0.0
 40
5.5
  0
LINE
  5
FE
330
70
100
AcDbEntity
  8
Visible (ISO)
100
AcDbLine
 10
110.8119083425523
 20
31.183589535176
 30
0.0
 11
110.8119083425523
 21
49.18358953517598
 31
0.0
  0
LINE
  5
FF
330
70
100
AcDbEntity
  8
Visible (ISO)
100
AcDbLine
 10
111.5119083425524
 20
48.483589535176
 30
0.0
 11
111.5119083425524
 21
31.883589535176
 31
0.0
  0
SPLINE
  5
100
330
70
100
AcDbEntity
  8
Visible (ISO)
100
AcDbSpline
210
0.0
220
0.0
230
1.0
 70
    12
 71
     2
 72
     6
 73
     3
 74
     0
 42
0.000000001
 43
0.0000000001
 40
1.193179803138999
 40
1.193179803138999
 40
1.193179803138999
 40
4.676516384342
 40
4.676516384342
 40
4.676516384342
 10
64.21277253669237
 20
50.18358953517598
 30
0.0
 41
1.615432893254999
 10
60.13028963205336
 20
40.18358953517601
 30
0.0
 41
2.284567106744999
 10
64.21277253669237
 20
30.18358953517598
 30
0.0
 41
1.615432893254999
  0
LINE
  5
101
330
70
100
AcDbEntity
  8
Visible (ISO)
100
AcDbLine
 10
93.54309496034037
 20
30.18358953416318
 30
0.0
 11
64.21277253594827
 21
30.18358953517598
 31
0.0
  0
LINE
  5
102
330
70
100
AcDbEntity
  8
Visible (ISO)
100
AcDbLine
 10
64.21277253594827
 20
50.18358953517598
 30
0.0
 11
93.54309496034037
 21
50.18358953618879
 31
0.0
  0
SPLINE
  5
103
330
70
100
AcDbEntity
  8
Visible (ISO)
100
AcDbSpline
210
0.0
220
0.0
230
1.0
 70
    12
 71
     2
 72
     6
 73
     3
 74
     0
 42
0.000000001
 43
0.0000000001
 40
1.576725433212
 40
1.576725433212
 40
1.576725433212
 40
2.854642247750999
 40
2.854642247750999
 40
2.854642247750999
 10
62.50277897109337
 20
30.18358953517599
 30
0.0
 41
1.219572546448999
 10
60.25681148637237
 20
34.53288686739699
 30
0.0
 41
1.198766714335999
 10
59.51190834255236
 20
36.86696474482098
 30
0.0
 41
1.0
  0
SPLINE
  5
104
330
70
100
AcDbEntity
  8
Visible (ISO)
100
AcDbSpline
210
0.0
220
0.0
230
1.0
 70
    28
 71
     2
 72
     6
 73
     3
 74
     0
 42
0.000000001
 43
0.0000000001
 40
1.193179803138999
 40
1.193179803138999
 40
1.193179803138999
 40
1.942239091557
 40
1.942239091557
 40
1.942239091557
 10
64.21277253669237
 20
30.18358953517598
 30
0.0
 41
1.615432893254999
 10
63.07277682629335
 20
30.18358953517599
 30
0.0
 41
1.759324012051
 10
62.50277897109335
 20
30.18358953517598
 30
0.0
 41
1.841330224498
  0
SPLINE
  5
105
330
70
100
AcDbEntity
  8
Visible (ISO)
100
AcDbSpline
210
0.0
220
0.0
230
1.0
 70
    28
 71
     2
 72
     6
 73
     3
 74
     0
 42
0.000000001
 43
0.0000000001
 40
3.927457095923999
 40
3.927457095923999
 40
3.927457095923999
 40
4.676516384342
 40
4.676516384342
 40
4.676516384342
 10
62.50277897109335
 20
50.18358953517598
 30
0.0
 41
1.841330224498
 10
63.07277682629335
 20
50.18358953517598
 30
0.0
 41
1.759324012051
 10
64.21277253669237
 20
50.18358953517598
 30
0.0
 41
1.615432893254999
  0
SPLINE
  5
106
330
70
100
AcDbEntity
  8
Visible (ISO)
100
AcDbSpline
210
0.0
220
0.0
230
1.0
 70
    12
 71
     2
 72
     6
 73
     3
 74
     0
 42
0.000000001
 43
0.0000000001
 40
0.0
 40
0.0
 40
0.0
 40
1.277916814539
 40
1.277916814539
 40
1.277916814539
 10
59.51190834255236
 20
43.50021432553098
 30
0.0
 41
1.0
 10
60.25681148637237
 20
45.83429220295498
 30
0.0
 41
1.198766714335999
 10
62.50277897109337
 20
50.18358953517598
 30
0.0
 41
1.219572546448999
  0
LINE
  5
107
330
70
100
AcDbEntity
  8
Visible (ISO)
100
AcDbLine
 10
59.51190834255237
 20
43.50021432618007
 30
0.0
 11
59.51190834255236
 21
36.86696474417189
 31
0.0
  0
LINE
  5
108
330
70
100
AcDbEntity
  8
Visible (ISO)
100
AcDbLine
 10
96.51190835451856
 20
31.18358952826732
 30
0.0
 11
95.93455808772217
 21
30.18358953517598
 31
0.0
  0
LINE
  5
109
330
70
100
AcDbEntity
  8
Visible (ISO)
100
AcDbLine
 10
96.51190835451856
 20
49.18358954208465
 30
0.0
 11
95.93455808772217
 21
50.18358953517598
 31
0.0
  0
LINE
  5
10A
330
70
100
AcDbEntity
  8
Visible (ISO)
100
AcDbLine
 10
110.8119083425523
 20
31.183589535176
 30
0.0
 11
96.51190834255238
 21
31.18358953517599
 31
0.0
  0
LINE
  5
10B
330
70
100
AcDbEntity
  8
Visible (ISO)
100
AcDbLine
 10
110.8119083425523
 20
49.183589535176
 30
0.0
 11
96.51190834255238
 21
49.18358953517598
 31
0.0
  0
LINE
  5
10C
330
70
100
AcDbEntity
  8
Visible (ISO)
100
AcDbLine
 10
111.5119083428664
 20
31.88358953486188
 30
0.0
 11
110.8119083422382
 21
31.1835895354901
 31
0.0
  0
LINE
  5
10D
330
70
100
AcDbEntity
  8
Visible (ISO)
100
AcDbLine
 10
111.5119083428665
 20
48.48358953549009
 30
0.0
 11
110.8119083422382
 21
49.18358953486188
 31
0.0
  0
SPLINE
  5
10E
330
70
100
AcDbEntity
  8
Hidden (ISO)
100
AcDbSpline
210
0.0
220
0.0
230
1.0
 70
     8
 71
     3
 72
    71
 73
    67
 74
     0
 42
0.000000001
 43
0.0000000001
 40
-0.06522435549567
 40
-0.06522435549567
 40
-0.06522435549567
 40
-0.06522435549567
 40
-0.06225965751386
 40
-0.06225965751386
 40
-0.06225965751386
 40
-0.05929495953205
 40
-0.05929495953205
 40
-0.05929495953205
 40
-0.05633026155024
 40
-0.05633026155024
 40
-0.05633026155024
 40
-0.05336556356843
 40
-0.05336556356843
 40
-0.05336556356843
 40
-0.05040086558662
 40
-0.05040086558662
 40
-0.05040086558662
 40
-0.04743616760481
 40
-0.04743616760481
 40
-0.04743616760481
 40
-0.044471469623
 40
-0.044471469623
 40
-0.044471469623
 40
-0.04150677164119
 40
-0.04150677164119
 40
-0.04150677164119
 40
-0.03854207365938
 40
-0.03854207365938
 40
-0.03854207365938
 40
-0.03557737567757
 40
-0.03557737567757
 40
-0.03557737567757
 40
-0.03261267769576
 40
-0.03261267769576
 40
-0.03261267769576
 40
-0.02964797971395
 40
-0.02964797971395
 40
-0.02964797971395
 40
-0.02668328173214
 40
-0.02668328173214
 40
-0.02668328173214
 40
-0.02371858375033
 40
-0.02371858375033
 40
-0.02371858375033
 40
-0.02075388576852
 40
-0.02075388576852
 40
-0.02075388576852
 40
-0.01778918778671
 40
-0.01778918778671
 40
-0.01778918778671
 40
-0.0148244898049
 40
-0.0148244898049
 40
-0.0148244898049
 40
-0.01185979182309
 40
-0.01185979182309
 40
-0.01185979182309
 40
-0.008895093841278
 40
-0.008895093841278
 40
-0.008895093841278
 40
-0.005930395859468
 40
-0.005930395859468
 40
-0.005930395859468
 40
-0.002965697877658
 40
-0.002965697877658
 40
-0.002965697877658
 40
-0.000000999895848
 40
-0.000000999895848
 40
-0.000000999895848
 40
-0.000000999895848
 10
91.91098636991487
 20
40.1835895351762
 30
0.0
 10
91.91098637011114
 20
40.17369668293351
 30
0.0
 10
91.91098736116096
 20
40.16380451821466
 30
0.0
 10
91.91098932952536
 20
40.15391317928005
 30
0.0
 10
91.91099129788975
 20
40.14402184034546
 30
0.0
 10
91.91099424356558
 20
40.13413132719294
 30
0.0
 10
91.91099812573066
 20
40.1242417781681
 30
0.0
 10
91.91100200789575
 20
40.11435222914328
 30
0.0
 10
91.91100682654786
 20
40.104463644244
 30
0.0
 10
91.91101251433421
 20
40.09457616171015
 30
0.0
 10
91.91101820212054
 20
40.08468867917631
 30
0.0
 10
91.9110247590388
 20
40.07480229900576
 30
0.0
 10
91.91103209107097
 20
40.0649171593217
 30
0.0
 10
91.91103942310318
 20
40.05503201963764
 30
0.0
 10
91.91104753024747
 20
40.04514812043797
 30
0.0
 10
91.91105629191126
 20
40.03526560015362
 30
0.0
 10
91.91106505357504
 20
40.02538307986927
 30
0.0
 10
91.91107446975696
 20
40.01550193849811
 30
0.0
 10
91.91108439331413
 20
40.00562231328157
 30
0.0
 10
91.91109431687131
 20
39.99574268806504
 30
0.0
 10
91.91110474780206
 20
39.98586457900099
 30
0.0
 10
91.91111551243047
 20
39.97598812789523
 30
0.0
 10
91.91112627705889
 20
39.96611167678947
 30
0.0
 10
91.91113737538612
 20
39.95623688363992
 30
0.0
 10
91.91114860725811
 20
39.94636387348655
 30
0.0
 10
91.91115983913007
 20
39.93649086333318
 30
0.0
 10
91.91117120453791
 20
39.92661963617379
 30
0.0
 10
91.91118247675563
 20
39.91675038003839
 30
0.0
 10
91.91119374897338
 20
39.90688112390298
 30
0.0
 10
91.91120492803172
 20
39.89701383878989
 30
0.0
 10
91.91121576092426
 20
39.88714847821245
 30
0.0
 10
91.91122659381679
 20
39.877283117635
 30
0.0
 10
91.91123708041972
 20
39.86741968158968
 30
0.0
 10
91.91124694087063
 20
39.85755899953687
 30
0.0
 10
91.91125680132154
 20
39.84769831748407
 30
0.0
 10
91.91126603557092
 20
39.8378403894217
 30
0.0
 10
91.91127433735934
 20
39.82798610919791
 30
0.0
 10
91.91128263914775
 20
39.81813182897412
 30
0.0
 10
91.91129000860319
 20
39.80828119658838
 30
0.0
 10
91.91129611428657
 20
39.79843420084613
 30
0.0
 10
91.91130221996994
 20
39.78858720510387
 30
0.0
 10
91.9113070618426
 20
39.77874384600274
 30
0.0
 10
91.91131028279954
 20
39.76890435481926
 30
0.0
 10
91.91131350375648
 20
39.75906486363578
 30
0.0
 10
91.91131510380662
 20
39.74922924036807
 30
0.0
 10
91.91131470023472
 20
39.73939765134529
 30
0.0
 10
91.91131429666285
 20
39.7295660623225
 30
0.0
 10
91.91131188946574
 20
39.71973850754267
 30
0.0
 10
91.91130707037865
 20
39.70991517079911
 30
0.0
 10
91.91130225129157
 20
39.70009183405556
 30
0.0
 10
91.9112950203157
 20
39.69027271534636
 30
0.0
 10
91.91128494363031
 20
39.68045799388408
 30
0.0
 10
91.91127486694496
 20
39.6706432724218
 30
0.0
 10
91.91126194455064
 20
39.6608329482045
 30
0.0
 10
91.91124571707641
 20
39.65102720181265
 30
0.0
 10
91.91122948960217
 20
39.64122145542081
 30
0.0
 10
91.91120995704991
 20
39.63142028685248
 30
0.0
 10
91.91118663449366
 20
39.6216238764873
 30
0.0
 10
91.91116331193738
 20
39.61182746612212
 30
0.0
 10
91.91113619937613
 20
39.60203581395818
 30
0.0
 10
91.91110478629559
 20
39.59224910068073
 30
0.0
 10
91.91107337321502
 20
39.58246238740329
 30
0.0
 10
91.91103765962555
 20
39.57268061301041
 30
0.0
 10
91.9109971094444
 20
39.56290395821624
 30
0.0
 10
91.91095655926321
 20
39.55312730342207
 30
0.0
 10
91.91091117245562
 20
39.5433557682249
 30
0.0
 10
91.91086038735141
 20
39.53358953414738
 30
0.0
  0
SPLINE
  5
10F
330
70
100
AcDbEntity
  8
Hidden (ISO)
100
AcDbSpline
210
0.0
220
0.0
230
1.0
 70
     8
 71
     3
 72
    71
 73
    67
 74
     0
 42
0.000000001
 43
0.0000000001
 40
-0.06529183341916
 40
-0.06529183341916
 40
-0.06529183341916
 40
-0.06529183341916
 40
-0.06232406826374
 40
-0.06232406826374
 40
-0.06232406826374
 40
-0.05935630310833
 40
-0.05935630310833
 40
-0.05935630310833
 40
-0.05638853795291
 40
-0.05638853795291
 40
-0.05638853795291
 40
-0.0534207727975
 40
-0.0534207727975
 40
-0.0534207727975
 40
-0.05045300764208
 40
-0.05045300764208
 40
-0.05045300764208
 40
-0.04748524248667
 40
-0.04748524248667
 40
-0.04748524248667
 40
-0.04451747733125
 40
-0.04451747733125
 40
-0.04451747733125
 40
-0.04154971217584
 40
-0.04154971217584
 40
-0.04154971217584
 40
-0.03858194702042
 40
-0.03858194702042
 40
-0.03858194702042
 40
-0.03561418186501
 40
-0.03561418186501
 40
-0.03561418186501
 40
-0.03264641670959
 40
-0.03264641670959
 40
-0.03264641670959
 40
-0.02967865155418
 40
-0.02967865155418
 40
-0.02967865155418
 40
-0.02671088639876
 40
-0.02671088639876
 40
-0.02671088639876
 40
-0.02374312124334
 40
-0.02374312124334
 40
-0.02374312124334
 40
-0.02077535608793
 40
-0.02077535608793
 40
-0.02077535608793
 40
-0.01780759093251
 40
-0.01780759093251
 40
-0.01780759093251
 40
-0.0148398257771
 40
-0.0148398257771
 40
-0.0148398257771
 40
-0.01187206062168
 40
-0.01187206062168
 40
-0.01187206062168
 40
-0.008904295466267
 40
-0.008904295466267
 40
-0.008904295466267
 40
-0.005936530310852
 40
-0.005936530310852
 40
-0.005936530310852
 40
-0.002968765155436
 40
-0.002968765155436
 40
-0.002968765155436
 40
-0.000001000000021
 40
-0.000001000000021
 40
-0.000001000000021
 40
-0.000001000000021
 10
91.91086038735148
 20
40.83358953620431
 30
0.0
 10
91.91091117176743
 20
40.82382343447853
 30
0.0
 10
91.91095655845684
 20
40.81405194924927
 30
0.0
 10
91.91099710881902
 20
40.80427527712701
 30
0.0
 10
91.91103765918121
 20
40.79449860500478
 30
0.0
 10
91.91107337325115
 20
40.78471674598783
 30
0.0
 10
91.91110478690411
 20
40.77492989587773
 30
0.0
 10
91.91113620055707
 20
40.76514304576758
 30
0.0
 10
91.91116331378291
 20
40.75535120456236
 30
0.0
 10
91.9111866369475
 20
40.74555456803476
 30
0.0
 10
91.91120996011211
 20
40.73575793150722
 30
0.0
 10
91.91122949321671
 20
40.72595649965543
 30
0.0
 10
91.91124572109375
 20
40.71615046794907
 30
0.0
 10
91.91126194897078
 20
40.70634443624268
 30
0.0
 10
91.91127487161862
 20
40.6965338046798
 30
0.0
 10
91.91128494836521
 20
40.68671876892461
 30
0.0
 10
91.91129502511179
 20
40.67690373316943
 30
0.0
 10
91.91130225595683
 20
40.66708429322002
 30
0.0
 10
91.91130707472428
 20
40.65726064339978
 30
0.0
 10
91.91131189349171
 20
40.64743699357951
 30
0.0
 10
91.91131430018069
 20
40.63760913388647
 30
0.0
 10
91.91131470310024
 20
40.62777726312254
 30
0.0
 10
91.91131510601975
 20
40.61794539235862
 30
0.0
 10
91.91131350517311
 20
40.60810951052184
 30
0.0
 10
91.9113102833602
 20
40.59826979933583
 30
0.0
 10
91.91130706154726
 20
40.58843008814978
 30
0.0
 10
91.91130221876006
 20
40.57858654761265
 30
0.0
 10
91.91129611220715
 20
40.56873942295562
 30
0.0
 10
91.91129000565425
 20
40.55889229829863
 30
0.0
 10
91.9112826353724
 20
40.54904158951941
 30
0.0
 10
91.91127433299028
 20
40.53918730475317
 30
0.0
 10
91.91126603060812
 20
40.52933301998693
 30
0.0
 10
91.91125679600546
 20
40.51947515923313
 30
0.0
 10
91.91124693541731
 20
40.50961461722554
 30
0.0
 10
91.91123707482917
 20
40.49975407521798
 30
0.0
 10
91.91122658831778
 20
40.48989085195438
 30
0.0
 10
91.91121575554221
 20
40.48002568236459
 30
0.0
 10
91.91120492276665
 20
40.47016051277478
 30
0.0
 10
91.91119374383006
 20
40.46029339685545
 30
0.0
 10
91.91118247178188
 20
40.45042431353375
 30
0.0
 10
91.9111711997337
 20
40.44055523021206
 30
0.0
 10
91.91115983454844
 20
40.43068417948627
 30
0.0
 10
91.91114860291566
 20
40.42081134266211
 30
0.0
 10
91.9111373712829
 20
40.41093850583798
 30
0.0
 10
91.91112627321018
 20
40.40106388291326
 30
0.0
 10
91.911115508844
 20
40.39118760081501
 30
0.0
 10
91.91110474447782
 20
40.38131131871671
 30
0.0
 10
91.91109431381734
 20
40.37143337744281
 30
0.0
 10
91.91108439052525
 20
40.36155391837918
 30
0.0
 10
91.91107446723316
 20
40.35167445931559
 30
0.0
 10
91.91106505131106
 20
40.34179348246019
 30
0.0
 10
91.91105628989337
 20
40.33191112525272
 30
0.0
 10
91.91104752847566
 20
40.32202876804521
 30
0.0
 10
91.91103942156377
 20
40.31214503048352
 30
0.0
 10
91.91103208974338
 20
40.30226005103175
 30
0.0
 10
91.911024757923
 20
40.29237507158001
 30
0.0
 10
91.91101820119596
 20
40.28248885023606
 30
0.0
 10
91.91101251357563
 20
40.27260152520081
 30
0.0
 10
91.9110068259553
 20
40.26271420016558
 30
0.0
 10
91.91100200744402
 20
40.25282577143694
 30
0.0
 10
91.91099812539192
 20
40.24293637732064
 30
0.0
 10
91.91099424333982
 20
40.23304698320434
 30
0.0
 10
91.91099129774913
 20
40.22315662369829
 30
0.0
 10
91.91098932944118
 20
40.21326543721794
 30
0.0
 10
91.91098736113325
 20
40.20337425073762
 30
0.0
 10
91.91098637011121
 20
40.19348223728084
 30
0.0
 10
91.91098636991496
 20
40.18358953517598
 30
0.0
  0
LINE
  5
110
330
70
100
AcDbEntity
  8
Hidden (ISO)
100
AcDbLine
 10
110.0119083425523
 20
44.43358953517599
 30
0.0
 11
110.0119083425523
 21
35.933589535176
 31
0.0
  0
ARC
  5
111
330
70
100
AcDbEntity
  8
Hidden (ISO)
100
AcDbCircle
 10
-33.08744960122429
 20
40.18358953517561
 30
0.0
 40
125.0000000000066
100
AcDbArc
 50
0.297939396668937
 51
4.588565735785744
  0
ARC
  5
112
330
70
100
AcDbEntity
  8
Hidden (ISO)
100
AcDbCircle
 10
-33.08744960122107
 20
40.18358953517616
 30
0.0
 40
125.0000000000034
100
AcDbArc
 50
355.4114342642143
 51
359.7020606033311
  0
LINE
  5
113
330
70
100
AcDbEntity
  8
Hidden (ISO)
100
AcDbLine
 10
91.84027950645484
 20
44.43358953517599
 30
0.0
 11
110.0119083425523
 21
44.43358953517599
 31
0.0
  0
LINE
  5
114
330
70
100
AcDbEntity
  8
Hidden (ISO)
100
AcDbLine
 10
91.84027950645484
 20
35.933589535176
 30
0.0
 11
110.0119083425523
 21
35.93358953517599
 31
0.0
  0
LINE
  5
115
330
70
100
AcDbEntity
  8
Hidden (ISO)
100
AcDbLine
 10
110.0119083418793
 20
44.43358953584907
 30
0.0
 11
111.5119083432254
 21
45.9335895345029
 31
0.0
  0
LINE
  5
116
330
70
100
AcDbEntity
  8
Hidden (ISO)
100
AcDbLine
 10
110.0119083418793
 20
35.93358953450291
 30
0.0
 11
111.5119083432254
 21
34.43358953584908
 31
0.0
  0
SPLINE
  5
117
330
70
100
AcDbEntity
  8
Visible (ISO)
100
AcDbSpline
210
0.0
220
0.0
230
1.0
 70
    12
 71
     2
 72
     6
 73
     3
 74
     0
 42
0.000000001
 43
0.0000000001
 40
-11.39135300990488
 40
-11.39135300990488
 40
-11.39135300990488
 40
-4.016361222009315
 40
-4.016361222009315
 40
-4.016361222009315
 10
93.54309496270074
 20
62.70973402137039
 30
0.0
 41
3.298697012420168
 10
97.62557788018327
 20
72.70973402392155
 30
0.0
 41
4.66506205371928
 10
93.54309496270074
 20
82.70973402647269
 30
0.0
 41
3.298697012420171
  0
SPLINE
  5
118
330
70
100
AcDbEntity
  8
Visible (ISO)
100
AcDbSpline
210
0.0
220
0.0
230
1.0
 70
    12
 71
     2
 72
     6
 73
     3
 74
     0
 42
0.000000001
 43
0.0000000001
 40
2.934848093740504
 40
2.934848093740504
 40
2.934848093740504
 40
4.676516384342
 40
4.676516384342
 40
4.676516384342
 10
95.93455807337235
 20
62.70973402391857
 30
0.0
 41
1.95
 10
88.5581897217227
 20
58.40601827476525
 30
0.0
 41
1.949999999999998
 10
93.54309495599109
 20
62.70973402392154
 30
0.0
 41
1.615432893254999
  0
SPLINE
  5
119
330
70
100
AcDbEntity
  8
Visible (ISO)
100
AcDbSpline
210
0.0
220
0.0
230
1.0
 70
    12
 71
     2
 72
     6
 73
     3
 74
     0
 42
0.000000001
 43
0.0000000001
 40
1.193179803138999
 40
1.193179803138999
 40
1.193179803138999
 40
2.934848093740507
 40
2.934848093740507
 40
2.934848093740507
 10
93.54309495599109
 20
82.70973402392156
 30
0.0
 41
1.615432893254999
 10
88.55818972172265
 20
77.03343527273445
 30
0.0
 41
1.950000000000001
 10
95.93455807337235
 20
82.70973402391858
 30
0.0
 41
1.95
  0
LINE
  5
11A
330
70
100
AcDbEntity
  8
Visible (ISO)
100
AcDbLine
 10
96.51190834256206
 20
81.70973402391858
 30
0.0
 11
96.51190834256206
 21
63.7097340239186
 31
0.0
  0
LINE
  5
11B
330
70
100
AcDbEntity
  8
Visible (ISO)
100
AcDbLine
 10
110.811908342562
 20
63.7097340239186
 30
0.0
 11
110.811908342562
 21
81.7097340239186
 31
0.0
  0
LINE
  5
11C
330
70
100
AcDbEntity
  8
Visible (ISO)
100
AcDbLine
 10
111.511908342562
 20
81.0097340239186
 30
0.0
 11
111.511908342562
 21
64.4097340239186
 31
0.0
  0
ELLIPSE
  5
11D
330
70
100
AcDbEntity
  8
Visible (ISO)
100
AcDbEllipse
 10
90.70928913105317
 20
76.90970133476525
 30
0.0
 11
-0.8026049561212964
 21
-0.0047990945858375
 31
0.0
210
0.0
220
0.0
230
0.9999999999999998
 40
0.9967771678280184
 41
3.135634854269898
 42
4.70639128687912
  0
ELLIPSE
  5
11E
330
70
100
AcDbEntity
  8
Visible (ISO)
100
AcDbEllipse
 10
90.70928913105328
 20
68.50976671308024
 30
0.0
 11
-0.8026049561197213
 21
0.0047990948325
 31
0.0
210
0.0
220
0.0
230
1.0
 40
0.9967771678311107
 41
1.576794020609168
 42
3.147550453218745
  0
SPLINE
  5
11F
330
70
100
AcDbEntity
  8
Visible (ISO)
100
AcDbSpline
210
0.0
220
0.0
230
1.0
 70
    12
 71
     2
 72
     6
 73
     3
 74
     0
 42
0.000000001
 43
0.0000000001
 40
2.934848093740505
 40
2.934848093740505
 40
2.934848093740505
 40
4.676516384342
 40
4.676516384342
 40
4.676516384342
 10
61.82130941932037
 20
82.70973402391858
 30
0.0
 41
1.95
 10
58.37102666141547
 20
77.03343527273448
 30
0.0
 41
1.949999999999998
 10
64.21277253670107
 20
82.70973402392156
 30
0.0
 41
1.615432893254999
  0
LINE
  5
120
330
70
100
AcDbEntity
  8
Visible (ISO)
100
AcDbLine
 10
93.54309496035007
 20
82.70973402493433
 30
0.0
 11
64.2127725359571
 21
82.70973402392153
 31
0.0
  0
LINE
  5
121
330
70
100
AcDbEntity
  8
Visible (ISO)
100
AcDbLine
 10
91.51190834256206
 20
76.90973402392154
 30
0.0
 11
91.51190834256206
 21
68.50973402392154
 31
0.0
  0
SPLINE
  5
122
330
70
100
AcDbEntity
  8
Visible (ISO)
100
AcDbSpline
210
0.0
220
0.0
230
1.0
 70
    12
 71
     2
 72
     6
 73
     3
 74
     0
 42
0.000000001
 43
0.0000000001
 40
1.193179803138999
 40
1.193179803138999
 40
1.193179803138999
 40
2.934848093740504
 40
2.934848093740504
 40
2.934848093740504
 10
64.21277253670206
 20
62.70973402392154
 30
0.0
 41
1.615432893254999
 10
58.37102666141601
 20
58.40601827476522
 30
0.0
 41
1.95
 10
61.82130941932078
 20
62.70973402391857
 30
0.0
 41
1.95
  0
LINE
  5
123
330
70
100
AcDbEntity
  8
Visible (ISO)
100
AcDbLine
 10
64.21277253595798
 20
62.70973402392154
 30
0.0
 11
93.54309496035007
 21
62.70973402290874
 31
0.0
  0
SPLINE
  5
124
330
70
100
AcDbEntity
  8
Visible (ISO)
100
AcDbSpline
210
0.0
220
0.0
230
1.0
 70
    12
 71
     2
 72
     6
 73
     3
 74
     0
 42
0.000000001
 43
0.0000000001
 40
3.927457095923999
 40
3.927457095923999
 40
3.927457095923999
 40
4.676516384342
 40
4.676516384342
 40
4.676516384342
 10
62.50277897110307
 20
67.70973402392154
 30
0.0
 41
1.841330224498
 10
63.07277682630306
 20
65.50214182336053
 30
0.0
 41
1.759324012051
 10
64.21277253670206
 20
62.70973402392154
 30
0.0
 41
1.615432893254999
  0
SPLINE
  5
125
330
70
100
AcDbEntity
  8
Visible (ISO)
100
AcDbSpline
210
0.0
220
0.0
230
1.0
 70
    28
 71
     2
 72
     6
 73
     3
 74
     0
 42
0.000000001
 43
0.0000000001
 40
0.0
 40
0.0
 40
0.0
 40
1.277916814539
 40
1.277916814539
 40
1.277916814539
 10
59.51190834256206
 20
67.70973402391956
 30
0.0
 41
1.0
 10
60.25681148638206
 20
67.70973402392025
 30
0.0
 41
1.198766714335999
 10
62.50277897110308
 20
67.70973402392154
 30
0.0
 41
1.219572546448999
  0
LINE
  5
126
330
70
100
AcDbEntity
  8
Visible (ISO)
100
AcDbLine
 10
59.51190834256206
 20
67.70973402434984
 30
0.0
 11
59.51190834256208
 21
66.70973402391855
 31
0.0
  0
SPLINE
  5
127
330
70
100
AcDbEntity
  8
Visible (ISO)
100
AcDbSpline
210
0.0
220
0.0
230
1.0
 70
    28
 71
     2
 72
     6
 73
     3
 74
     0
 42
0.000000001
 43
0.0000000001
 40
1.576725433212
 40
1.576725433212
 40
1.576725433212
 40
2.854642247750999
 40
2.854642247750999
 40
2.854642247750999
 10
62.50277897110308
 20
77.70973402392155
 30
0.0
 41
1.219572546448999
 10
60.25681148638206
 20
77.70973402392026
 30
0.0
 41
1.198766714335999
 10
59.51190834256206
 20
77.70973402391956
 30
0.0
 41
1.0
  0
SPLINE
  5
128
330
70
100
AcDbEntity
  8
Visible (ISO)
100
AcDbSpline
210
0.0
220
0.0
230
1.0
 70
    12
 71
     2
 72
     6
 73
     3
 74
     0
 42
0.000000001
 43
0.0000000001
 40
1.193179803138999
 40
1.193179803138999
 40
1.193179803138999
 40
1.942239091557
 40
1.942239091557
 40
1.942239091557
 10
64.21277253670107
 20
82.70973402392156
 30
0.0
 41
1.615432893254999
 10
63.07277682630306
 20
79.91732622448454
 30
0.0
 41
1.759324012051
 10
62.50277897110307
 20
77.70973402392154
 30
0.0
 41
1.841330224498
  0
LINE
  5
129
330
70
100
AcDbEntity
  8
Visible (ISO)
100
AcDbLine
 10
59.51190834256205
 20
78.70973402391856
 30
0.0
 11
59.51190834256206
 21
77.70973402348926
 31
0.0
  0
LINE
  5
12A
330
70
100
AcDbEntity
  8
Visible (ISO)
100
AcDbLine
 10
62.5027789704055
 20
77.70973402392154
 30
0.0
 11
90.70931933885606
 21
77.70973402392154
 31
0.0
  0
LINE
  5
12B
330
70
100
AcDbEntity
  8
Visible (ISO)
100
AcDbLine
 10
90.70931933885706
 20
67.70973402392154
 30
0.0
 11
62.5027789704055
 21
67.70973402392153
 31
0.0
  0
LINE
  5
12C
330
70
100
AcDbEntity
  8
Visible (ISO)
100
AcDbLine
 10
96.51190835452824
 20
63.70973401700992
 30
0.0
 11
95.934558084142
 21
62.70973401770072
 31
0.0
  0
LINE
  5
12D
330
70
100
AcDbEntity
  8
Visible (ISO)
100
AcDbLine
 10
96.51190835452823
 20
81.70973403082726
 30
0.0
 11
95.934558084142
 21
82.70973403013641
 31
0.0
  0
LINE
  5
12E
330
70
100
AcDbEntity
  8
Visible (ISO)
100
AcDbLine
 10
110.811908342562
 20
63.70973402391861
 30
0.0
 11
96.51190834256206
 21
63.70973402391858
 31
0.0
  0
LINE
  5
12F
330
70
100
AcDbEntity
  8
Visible (ISO)
100
AcDbLine
 10
110.811908342562
 20
81.7097340239186
 30
0.0
 11
96.51190834256205
 21
81.70973402391858
 31
0.0
  0
LINE
  5
130
330
70
100
AcDbEntity
  8
Visible (ISO)
100
AcDbLine
 10
111.5119083428762
 20
64.4097340236045
 30
0.0
 11
110.8119083422479
 21
63.7097340242327
 31
0.0
  0
LINE
  5
131
330
70
100
AcDbEntity
  8
Visible (ISO)
100
AcDbLine
 10
111.5119083428761
 20
81.00973402423271
 30
0.0
 11
110.8119083422479
 21
81.70973402360449
 31
0.0
  0
LINE
  5
132
330
70
100
AcDbEntity
  8
Visible (ISO)
100
AcDbLine
 10
59.51190832880143
 20
66.70973401597385
 30
0.0
 11
61.82130941034635
 21
62.70973401873719
 31
0.0
  0
LINE
  5
133
330
70
100
AcDbEntity
  8
Visible (ISO)
100
AcDbLine
 10
59.51190832880143
 20
78.70973403186328
 30
0.0
 11
61.82130941034626
 21
82.70973402909977
 31
0.0
  0
LINE
  5
134
330
70
100
AcDbEntity
  8
Hidden (ISO)
100
AcDbLine
 10
66.51190834256206
 20
82.20973402391857
 30
0.0
 11
76.51190834256206
 21
82.20973402391857
 31
0.0
  0
LINE
  5
135
330
70
100
AcDbEntity
  8
Hidden (ISO)
100
AcDbLine
 10
76.51190834256206
 20
63.20973402391857
 30
0.0
 11
66.51190834256206
 21
63.20973402391857
 31
0.0
  0
SPLINE
  5
136
330
70
100
AcDbEntity
  8
Hidden (ISO)
100
AcDbSpline
210
0.0
220
0.0
230
1.0
 70
     8
 71
     3
 72
    71
 73
    67
 74
     0
 42
0.000000001
 43
0.0000000001
 40
-0.06529183341916
 40
-0.06529183341916
 40
-0.06529183341916
 40
-0.06529183341916
 40
-0.06232406826374
 40
-0.06232406826374
 40
-0.06232406826374
 40
-0.05935630310833
 40
-0.05935630310833
 40
-0.05935630310833
 40
-0.05638853795291
 40
-0.05638853795291
 40
-0.05638853795291
 40
-0.0534207727975
 40
-0.0534207727975
 40
-0.0534207727975
 40
-0.05045300764208
 40
-0.05045300764208
 40
-0.05045300764208
 40
-0.04748524248667
 40
-0.04748524248667
 40
-0.04748524248667
 40
-0.04451747733125
 40
-0.04451747733125
 40
-0.04451747733125
 40
-0.04154971217584
 40
-0.04154971217584
 40
-0.04154971217584
 40
-0.03858194702042
 40
-0.03858194702042
 40
-0.03858194702042
 40
-0.03561418186501
 40
-0.03561418186501
 40
-0.03561418186501
 40
-0.03264641670959
 40
-0.03264641670959
 40
-0.03264641670959
 40
-0.02967865155418
 40
-0.02967865155418
 40
-0.02967865155418
 40
-0.02671088639876
 40
-0.02671088639876
 40
-0.02671088639876
 40
-0.02374312124334
 40
-0.02374312124334
 40
-0.02374312124334
 40
-0.02077535608793
 40
-0.02077535608793
 40
-0.02077535608793
 40
-0.01780759093251
 40
-0.01780759093251
 40
-0.01780759093251
 40
-0.0148398257771
 40
-0.0148398257771
 40
-0.0148398257771
 40
-0.01187206062168
 40
-0.01187206062168
 40
-0.01187206062168
 40
-0.008904295466267
 40
-0.008904295466267
 40
-0.008904295466267
 40
-0.005936530310852
 40
-0.005936530310852
 40
-0.005936530310852
 40
-0.002968765155436
 40
-0.002968765155436
 40
-0.002968765155436
 40
-0.000001000000021
 40
-0.000001000000021
 40
-0.000001000000021
 40
-0.000001000000021
 10
91.91086038736116
 20
68.50973402407776
 30
0.0
 10
91.91091117177712
 20
68.50822261041419
 30
0.0
 10
91.91095655846654
 20
68.50674523602783
 30
0.0
 10
91.91099710882872
 20
68.5053019486726
 30
0.0
 10
91.91103765919093
 20
68.50385866131738
 30
0.0
 10
91.91107337326085
 20
68.50244946092437
 30
0.0
 10
91.91110478691383
 20
68.50107437356991
 30
0.0
 10
91.91113620056677
 20
68.49969928621544
 30
0.0
 10
91.9111633137926
 20
68.49835831182303
 30
0.0
 10
91.9111866369572
 20
68.49705148000002
 30
0.0
 10
91.9112099601218
 20
68.49574464817703
 30
0.0
 10
91.91122949322641
 20
68.49447195885389
 30
0.0
 10
91.91124572110345
 20
68.4932334394853
 30
0.0
 10
91.91126194898048
 20
68.49199492011668
 30
0.0
 10
91.91127487162832
 20
68.4907905706364
 30
0.0
 10
91.9112849483749
 20
68.48962041885744
 30
0.0
 10
91.91129502512149
 20
68.48845026707849
 30
0.0
 10
91.91130225596653
 20
68.48731431293888
 30
0.0
 10
91.91130707473398
 20
68.48621258468803
 30
0.0
 10
91.91131189350143
 20
68.48511085643719
 30
0.0
 10
91.91131430019039
 20
68.48404335401695
 30
0.0
 10
91.91131470310992
 20
68.48301010713353
 30
0.0
 10
91.91131510602945
 20
68.48197686025013
 30
0.0
 10
91.91131350518281
 20
68.48097786884967
 30
0.0
 10
91.9113102833699
 20
68.48001316319701
 30
0.0
 10
91.91130706155696
 20
68.47904845754434
 30
0.0
 10
91.91130221876974
 20
68.47811803758829
 30
0.0
 10
91.91129611221684
 20
68.47722193940672
 30
0.0
 10
91.91129000566395
 20
68.47632584122516
 30
0.0
 10
91.9112826353821
 20
68.4754640647748
 30
0.0
 10
91.91127433299996
 20
68.4746366339122
 30
0.0
 10
91.91126603061782
 20
68.47380920304958
 30
0.0
 10
91.91125679601515
 20
68.47301611772166
 30
0.0
 10
91.91124693542702
 20
68.47225745809962
 30
0.0
 10
91.91123707483887
 20
68.47149879847759
 30
0.0
 10
91.91122658832748
 20
68.47077456453146
 30
0.0
 10
91.91121575555191
 20
68.47008479558247
 30
0.0
 10
91.91120492277633
 20
68.46939502663345
 30
0.0
 10
91.91119374383976
 20
68.46873972265348
 30
0.0
 10
91.9111824717916
 20
68.4681188768303
 30
0.0
 10
91.91117119974339
 20
68.46749803100713
 30
0.0
 10
91.91115983455814
 20
68.46691164330626
 30
0.0
 10
91.91114860292536
 20
68.46635971971586
 30
0.0
 10
91.9111373712926
 20
68.46580779612546
 30
0.0
 10
91.91112627321988
 20
68.46529033661709
 30
0.0
 10
91.9111155088537
 20
68.46480734483984
 30
0.0
 10
91.91110474448752
 20
68.46432435306259
 30
0.0
 10
91.91109431382704
 20
68.46387582899115
 30
0.0
 10
91.91108439053495
 20
68.46346177851978
 30
0.0
 10
91.91107446724286
 20
68.46304772804842
 30
0.0
 10
91.91106505132076
 20
68.46266815115561
 30
0.0
 10
91.91105628990307
 20
68.46232305516586
 30
0.0
 10
91.91104752848536
 20
68.46197795917612
 30
0.0
 10
91.91103942157347
 20
68.4616673440716
 30
0.0
 10
91.91103208975308
 20
68.46139121904222
 30
0.0
 10
91.9110247579327
 20
68.46111509401286
 30
0.0
 10
91.91101820120566
 20
68.46087345904448
 30
0.0
 10
91.91101251358533
 20
68.46066632541307
 30
0.0
 10
91.911006825965
 20
68.4604591917817
 30
0.0
 10
91.91100200745372
 20
68.4602865594768
 30
0.0
 10
91.91099812540162
 20
68.46014844107196
 30
0.0
 10
91.91099424334952
 20
68.46001032266713
 30
0.0
 10
91.91099129775883
 20
68.45990671815545
 30
0.0
 10
91.91098932945088
 20
68.4598376442525
 30
0.0
 10
91.91098736114296
 20
68.45976857034954
 30
0.0
 10
91.91098637012089
 20
68.45973402705221
 30
0.0
 10
91.91098636992464
 20
68.45973402391843
 30
0.0
  0
SPLINE
  5
137
330
70
100
AcDbEntity
  8
Hidden (ISO)
100
AcDbSpline
210
0.0
220
0.0
230
1.0
 70
     8
 71
     3
 72
    23
 73
    19
 74
     0
 42
0.000000001
 43
0.0000000001
 40
1.985065210001413
 40
1.985065210001413
 40
1.985065210001413
 40
1.985065210001413
 40
2.081366019636143
 40
2.081366019636143
 40
2.241471094736277
 40
2.241471094736277
 40
2.401576177058812
 40
2.401576177058812
 40
2.561681259381347
 40
2.561681259381347
 40
2.561681259381347
 40
2.721786341703882
 40
2.721786341703882
 40
2.881891424026417
 40
2.881891424026417
 40
3.041996499126551
 40
3.041996499126551
 40
3.138297308761281
 40
3.138297308761281
 40
3.138297308761281
 40
3.138297308761281
 10
91.91086038736214
 20
68.509734024078
 30
0.0
 10
91.90914260401896
 20
68.56085783713317
 30
0.0
 10
91.90606626740965
 20
68.65282533265965
 30
0.0
 10
91.89515559171022
 20
69.00014008720521
 30
0.0
 10
91.88549410942071
 20
69.32721347271412
 30
0.0
 10
91.86734624461079
 20
70.08184695206009
 30
0.0
 10
91.85768232480279
 20
70.55972235433165
 30
0.0
 10
91.84405105434194
 20
71.60682234669187
 30
0.0
 10
91.84027950646454
 20
72.17605041617807
 30
0.0
 10
91.84027950646454
 20
72.70973402391985
 30
0.0
 10
91.84027950646454
 20
73.24341763166163
 30
0.0
 10
91.84405105434196
 20
73.81264570114777
 30
0.0
 10
91.85768232480279
 20
74.85974569350772
 30
0.0
 10
91.86734624461079
 20
75.33762109577908
 30
0.0
 10
91.88549410942071
 20
76.09225457512462
 30
0.0
 10
91.89515559171022
 20
76.41932796063324
 30
0.0
 10
91.90606626740965
 20
76.76664271517831
 30
0.0
 10
91.90914260401896
 20
76.8586102107046
 30
0.0
 10
91.91086038736214
 20
76.90973402375957
 30
0.0
  0
SPLINE
  5
138
330
70
100
AcDbEntity
  8
Hidden (ISO)
100
AcDbSpline
210
0.0
220
0.0
230
1.0
 70
     8
 71
     3
 72
    71
 73
    67
 74
     0
 42
0.000000001
 43
0.0000000001
 40
-0.06522422990639
 40
-0.06522422990639
 40
-0.06522422990639
 40
-0.06522422990639
 40
-0.0622595376379159
 40
-0.0622595376379159
 40
-0.0622595376379159
 40
-0.0592948453694418
 40
-0.0592948453694418
 40
-0.0592948453694418
 40
-0.0563301531009677
 40
-0.0563301531009677
 40
-0.0563301531009677
 40
-0.0533654608325036
 40
-0.0533654608325036
 40
-0.0533654608325036
 40
-0.0504007685640296
 40
-0.0504007685640296
 40
-0.0504007685640296
 40
-0.0474360762955555
 40
-0.0474360762955555
 40
-0.0474360762955555
 40
-0.0444713840270814
 40
-0.0444713840270814
 40
-0.0444713840270814
 40
-0.0415066917586073
 40
-0.0415066917586073
 40
-0.0415066917586073
 40
-0.0385419994901332
 40
-0.0385419994901332
 40
-0.0385419994901332
 40
-0.0355773072216691
 40
-0.0355773072216691
 40
-0.0355773072216691
 40
-0.032612614953195
 40
-0.032612614953195
 40
-0.032612614953195
 40
-0.0296479226847209
 40
-0.0296479226847209
 40
-0.0296479226847209
 40
-0.0266832304162468
 40
-0.0266832304162468
 40
-0.0266832304162468
 40
-0.0237185381477727
 40
-0.0237185381477727
 40
-0.0237185381477727
 40
-0.0207538458792986
 40
-0.0207538458792986
 40
-0.0207538458792986
 40
-0.0177891536108346
 40
-0.0177891536108346
 40
-0.0177891536108346
 40
-0.0148244613423605
 40
-0.0148244613423605
 40
-0.0148244613423605
 40
-0.0118597690738864
 40
-0.0118597690738864
 40
-0.0118597690738864
 40
-0.0088950768054133
 40
-0.0088950768054133
 40
-0.0088950768054133
 40
-0.0059303845369412
 40
-0.0059303845369412
 40
-0.0059303845369412
 40
-0.0029656922684681
 40
-0.0029656922684681
 40
-0.0029656922684681
 40
-0.000000999999996
 40
-0.000000999999996
 40
-0.000000999999996
 40
-0.000000999999996
 10
91.91098636992599
 20
76.95973402389544
 30
0.0
 10
91.91098637157701
 20
76.95973399753059
 30
0.0
 10
91.91098736404688
 20
76.95969943110682
 30
0.0
 10
91.91098933373863
 20
76.95963033409296
 30
0.0
 10
91.91099130343037
 20
76.95956123707908
 30
0.0
 10
91.91099425034087
 20
76.95945760947198
 30
0.0
 10
91.91099813360589
 20
76.9593194678979
 30
0.0
 10
91.9110020168709
 20
76.95918132632382
 30
0.0
 10
91.91100683648825
 20
76.95900867077584
 30
0.0
 10
91.91101252507868
 20
76.95880151373919
 30
0.0
 10
91.91101821366913
 20
76.95859435670256
 30
0.0
 10
91.9110247712304
 20
76.95835269816675
 30
0.0
 10
91.91103210373368
 20
76.95807654932
 30
0.0
 10
91.91103943623692
 20
76.95780040047323
 30
0.0
 10
91.91104754368039
 20
76.95748976130129
 30
0.0
 10
91.91105630547586
 20
76.95714464091587
 30
0.0
 10
91.91106506727132
 20
76.95679952053044
 30
0.0
 10
91.91107448341744
 20
76.95641991891365
 30
0.0
 10
91.91108440679137
 20
76.95600584329341
 30
0.0
 10
91.91109433016533
 20
76.95559176767317
 30
0.0
 10
91.9111047607654
 20
76.95514321802793
 30
0.0
 10
91.91111552494945
 20
76.95466020024698
 30
0.0
 10
91.91112628913352
 20
76.95417718246601
 30
0.0
 10
91.91113738690278
 20
76.95365969652392
 30
0.0
 10
91.91114861815689
 20
76.95310774575199
 30
0.0
 10
91.91115984941101
 20
76.95255579498006
 30
0.0
 10
91.91117121414086
 20
76.95196937934996
 30
0.0
 10
91.91118248567121
 20
76.95134850573336
 30
0.0
 10
91.91119375720157
 20
76.95072763211676
 30
0.0
 10
91.911204935564
 20
76.95007230047846
 30
0.0
 10
91.91121576788205
 20
76.94938250044777
 30
0.0
 10
91.91122660020008
 20
76.94869270041708
 30
0.0
 10
91.91123708634618
 20
76.94796843196889
 30
0.0
 10
91.911246946373
 20
76.94720974753217
 30
0.0
 10
91.91125680639983
 20
76.94645106309545
 30
0.0
 10
91.91126604027251
 20
76.94565796263815
 30
0.0
 10
91.91127434163693
 20
76.94483052644376
 30
0.0
 10
91.91128264300132
 20
76.94400309024938
 30
0.0
 10
91.91129001197218
 20
76.94314131826432
 30
0.0
 10
91.9112961171627
 20
76.94224523203487
 30
0.0
 10
91.91130222235321
 20
76.94134914580543
 30
0.0
 10
91.91130706372838
 20
76.94041874528841
 30
0.0
 10
91.91131028418736
 20
76.93945406492739
 30
0.0
 10
91.91131350464633
 20
76.93848938456636
 30
0.0
 10
91.91131510419706
 20
76.93749042431004
 30
0.0
 10
91.91131470014612
 20
76.93645721260913
 30
0.0
 10
91.91131429609518
 20
76.93542400090821
 30
0.0
 10
91.91131188843968
 20
76.93435653770878
 30
0.0
 10
91.91130706893293
 20
76.93325485095411
 30
0.0
 10
91.91130224942618
 20
76.93215316419942
 30
0.0
 10
91.91129501806926
 20
76.93101725383126
 30
0.0
 10
91.91128494106264
 20
76.92984714632757
 30
0.0
 10
91.91127486405603
 20
76.92867703882388
 30
0.0
 10
91.9112619414002
 20
76.92747273412263
 30
0.0
 10
91.91124571374627
 20
76.92623425827523
 30
0.0
 10
91.91122948609232
 20
76.92499578242783
 30
0.0
 10
91.91120995344213
 20
76.923723135368
 30
0.0
 10
91.91118663089335
 20
76.92241634279676
 30
0.0
 10
91.91116330834459
 20
76.92110955022551
 30
0.0
 10
91.91113619589627
 20
76.91976861207321
 30
0.0
 10
91.91110478305928
 20
76.91839355620476
 30
0.0
 10
91.91107337022229
 20
76.91701850033632
 30
0.0
 10
91.91103765700697
 20
76.91560932667513
 30
0.0
 10
91.91099710735754
 20
76.91416605957067
 30
0.0
 10
91.91095655770807
 20
76.91272279246621
 30
0.0
 10
91.91091117158968
 20
76.91124543184939
 30
0.0
 10
91.91086038736107
 20
76.90973402375997
 30
0.0
  0
LINE
  5
139
330
70
100
AcDbEntity
  8
Hidden (ISO)
100
AcDbLine
 10
110.011908342562
 20
76.9597340239186
 30
0.0
 11
110.011908342562
 21
68.4597340239186
 31
0.0
  0
ARC
  5
13A
330
70
100
AcDbEntity
  8
Hidden (ISO)
100
AcDbCircle
 10
91.11255039879106
 20
76.90973402391858
 30
0.0
 40
0.8000000000000053
100
AcDbArc
 50
3.583321698474349
 51
89.99999999999872
  0
LINE
  5
13B
330
70
100
AcDbEntity
  8
Hidden (ISO)
100
AcDbLine
 10
91.11255039879209
 20
77.70973402391867
 30
0.0
 11
90.70931933885772
 21
77.70973402392164
 31
0.0
  0
ARC
  5
13C
330
70
100
AcDbEntity
  8
Hidden (ISO)
100
AcDbCircle
 10
91.11255039879106
 20
68.50973402391857
 30
0.0
 40
0.8000000000000035
100
AcDbArc
 50
270.0
 51
356.4166783015244
  0
LINE
  5
13D
330
70
100
AcDbEntity
  8
Hidden (ISO)
100
AcDbLine
 10
66.51190834256206
 20
77.70973402391857
 30
0.0
 11
66.51190834256206
 21
82.20973402391857
 31
0.0
  0
LINE
  5
13E
330
70
100
AcDbEntity
  8
Hidden (ISO)
100
AcDbLine
 10
76.51190834256206
 20
77.70973402391857
 30
0.0
 11
76.51190834256206
 21
82.20973402391857
 31
0.0
  0
LINE
  5
13F
330
70
100
AcDbEntity
  8
Hidden (ISO)
100
AcDbLine
 10
66.5119083423377
 20
82.20973402369422
 30
0.0
 11
66.01190834278643
 21
82.70973402414293
 31
0.0
  0
LINE
  5
140
330
70
100
AcDbEntity
  8
Hidden (ISO)
100
AcDbLine
 10
76.51190834278643
 20
82.20973402369422
 30
0.0
 11
77.0119083423377
 21
82.70973402414293
 31
0.0
  0
LINE
  5
141
330
70
100
AcDbEntity
  8
Hidden (ISO)
100
AcDbLine
 10
76.51190834256206
 20
67.70973402391857
 30
0.0
 11
76.51190834256206
 21
63.20973402391857
 31
0.0
  0
LINE
  5
142
330
70
100
AcDbEntity
  8
Hidden (ISO)
100
AcDbLine
 10
66.51190834256206
 20
67.70973402391857
 30
0.0
 11
66.51190834256206
 21
63.20973402391857
 31
0.0
  0
LINE
  5
143
330
70
100
AcDbEntity
  8
Hidden (ISO)
100
AcDbLine
 10
76.51190834278643
 20
63.20973402414293
 30
0.0
 11
77.0119083423377
 21
62.70973402369421
 31
0.0
  0
LINE
  5
144
330
70
100
AcDbEntity
  8
Hidden (ISO)
100
AcDbLine
 10
66.5119083423377
 20
63.20973402414293
 30
0.0
 11
66.01190834278643
 21
62.70973402369421
 31
0.0
  0
LINE
  5
145
330
70
100
AcDbEntity
  8
Hidden (ISO)
100
AcDbLine
 10
91.91098636992407
 20
76.95973402391858
 30
0.0
 11
110.011908342562
 21
76.9597340239186
 31
0.0
  0
LINE
  5
146
330
70
100
AcDbEntity
  8
Hidden (ISO)
100
AcDbLine
 10
91.91098636992407
 20
68.4597340239186
 30
0.0
 11
110.011908342562
 21
68.4597340239186
 31
0.0
  0
LINE
  5
147
330
70
100
AcDbEntity
  8
Hidden (ISO)
100
AcDbLine
 10
110.0119083418889
 20
76.95973402459168
 30
0.0
 11
111.5119083432351
 21
78.45973402324552
 31
0.0
  0
LINE
  5
148
330
70
100
AcDbEntity
  8
Hidden (ISO)
100
AcDbLine
 10
110.011908341889
 20
68.45973402324552
 30
0.0
 11
111.5119083432352
 21
66.95973402459166
 31
0.0
  0
SPLINE
  5
149
330
70
100
AcDbEntity
  8
Visible (ISO)
100
AcDbSpline
210
0.0
220
0.0
230
1.0
 70
     8
 71
     3
 72
    71
 73
    67
 74
     0
 42
0.000000001
 43
0.0000000001
 40
-0.06529185236276
 40
-0.06529185236276
 40
-0.06529185236276
 40
-0.06529185236276
 40
-0.06232408634627
 40
-0.06232408634627
 40
-0.06232408634627
 40
-0.05935632032979
 40
-0.05935632032979
 40
-0.05935632032979
 40
-0.0563885543133
 40
-0.0563885543133
 40
-0.0563885543133
 40
-0.05342078829681
 40
-0.05342078829681
 40
-0.05342078829681
 40
-0.05045302228032
 40
-0.05045302228032
 40
-0.05045302228032
 40
-0.04748525626383
 40
-0.04748525626383
 40
-0.04748525626383
 40
-0.04451749024734
 40
-0.04451749024734
 40
-0.04451749024734
 40
-0.04154972423086
 40
-0.04154972423086
 40
-0.04154972423086
 40
-0.03858195821437
 40
-0.03858195821437
 40
-0.03858195821437
 40
-0.03561419219788
 40
-0.03561419219788
 40
-0.03561419219788
 40
-0.03264642618139
 40
-0.03264642618139
 40
-0.03264642618139
 40
-0.0296786601649
 40
-0.0296786601649
 40
-0.0296786601649
 40
-0.02671089414842
 40
-0.02671089414842
 40
-0.02671089414842
 40
-0.02374312813193
 40
-0.02374312813193
 40
-0.02374312813193
 40
-0.02077536211544
 40
-0.02077536211544
 40
-0.02077536211544
 40
-0.01780759609895
 40
-0.01780759609895
 40
-0.01780759609895
 40
-0.01483983008246
 40
-0.01483983008246
 40
-0.01483983008246
 40
-0.01187206406597
 40
-0.01187206406597
 40
-0.01187206406597
 40
-0.008904298049486
 40
-0.008904298049486
 40
-0.008904298049486
 40
-0.005936532032997
 40
-0.005936532032997
 40
-0.005936532032997
 40
-0.002968766016509
 40
-0.002968766016509
 40
-0.002968766016509
 40
-0.000001000000021
 40
-0.000001000000021
 40
-0.000001000000021
 40
-0.000001000000021
 10
25.39987433295281
 20
39.53358953414788
 30
0.0
 10
25.39836289163754
 20
39.54335581461205
 30
0.0
 10
25.39688549936828
 20
39.55312739607103
 30
0.0
 10
25.3954422021669
 20
39.56290409682608
 30
0.0
 10
25.39399890496554
 20
39.5726807975811
 30
0.0
 10
25.39258970276299
 20
39.58246261763393
 30
0.0
 10
25.39121461988037
 20
39.59224937609455
 30
0.0
 10
25.38983953699776
 20
39.60203613455521
 30
0.0
 10
25.38849857335846
 20
39.61182783142563
 30
0.0
 10
25.38719175682891
 20
39.62162428584115
 30
0.0
 10
25.38588494029936
 20
39.63142074025666
 30
0.0
 10
25.38461227080993
 20
39.64122195221918
 30
0.0
 10
25.38337377407814
 20
39.65102774118152
 30
0.0
 10
25.38213527734634
 20
39.66083353014387
 30
0.0
 10
25.38093095330586
 20
39.67064389610797
 30
0.0
 10
25.37976082804556
 20
39.68045865827899
 30
0.0
 10
25.37859070278527
 20
39.69027342045001
 30
0.0
 10
25.3774547762431
 20
39.70009257882989
 30
0.0
 10
25.37635307493314
 20
39.70991595416369
 30
0.0
 10
25.37525137362317
 20
39.7197393294975
 30
0.0
 10
25.37418389748715
 20
39.72956692178716
 30
0.0
 10
25.37315067457259
 20
39.73939854655073
 30
0.0
 10
25.37211745165803
 20
39.7492301713143
 30
0.0
 10
25.37111848191107
 20
39.75906582855374
 30
0.0
 10
25.37015379368548
 20
39.76890535366172
 30
0.0
 10
25.3691891054599
 20
39.77874487876973
 30
0.0
 10
25.36825869870423
 20
39.78858827174813
 30
0.0
 10
25.36736260855864
 20
39.79843529404265
 30
0.0
 10
25.36646651841307
 20
39.80828231633717
 30
0.0
 10
25.36560474483503
 20
39.81813296795021
 30
0.0
 10
25.36477730713553
 20
39.82798728638281
 30
0.0
 10
25.36394986943602
 20
39.83784160481542
 30
0.0
 10
25.36315676755922
 20
39.84769959006789
 30
0.0
 10
25.36239809117327
 20
39.85756023948825
 30
0.0
 10
25.36163941478732
 20
39.8674208889086
 30
0.0
 10
25.36091516386407
 20
39.87728420249931
 30
0.0
 10
25.36022537864891
 20
39.88714947116667
 30
0.0
 10
25.35953559343373
 20
39.89701473983398
 30
0.0
 10
25.35888027389875
 20
39.90688196358122
 30
0.0
 10
25.35825941303511
 20
39.91675115639509
 30
0.0
 10
25.35763855217148
 20
39.92662034920898
 30
0.0
 10
25.35705214994464
 20
39.93649151109126
 30
0.0
 10
25.35650021245603
 20
39.94636446247132
 30
0.0
 10
25.35594827496743
 20
39.95623741385139
 30
0.0
 10
25.35543080218861
 20
39.96611215473141
 30
0.0
 10
25.35494779780704
 20
39.9759885575551
 30
0.0
 10
25.35446479342547
 20
39.98586496037878
 30
0.0
 10
25.3540162574158
 20
39.99574302514819
 30
0.0
 10
25.35360219573747
 20
40.00562261048195
 30
0.0
 10
25.35318813405915
 20
40.01550219581571
 30
0.0
 10
25.35280854669065
 20
40.02538330171595
 30
0.0
 10
25.35246344101996
 20
40.03526579057621
 30
0.0
 10
25.35211833534925
 20
40.04514827943648
 30
0.0
 10
25.35180771135847
 20
40.0550321512589
 30
0.0
 10
25.35153157830563
 20
40.06491726745836
 30
0.0
 10
25.35125544525279
 20
40.07480238365779
 30
0.0
 10
25.35101380312369
 20
40.08468874423638
 30
0.0
 10
25.35080666326396
 20
40.09457621085966
 30
0.0
 10
25.35059952340422
 20
40.10446367748298
 30
0.0
 10
25.35042688580336
 20
40.11435225015311
 30
0.0
 10
25.35028876310562
 20
40.12424179043333
 30
0.0
 10
25.35015064040789
 20
40.13413133071354
 30
0.0
 10
25.35004703260638
 20
40.14402183860593
 30
0.0
 10
25.34997795648698
 20
40.15391317556342
 30
0.0
 10
25.34990888036758
 20
40.16380451252089
 30
0.0
 10
25.34987433592717
 20
40.17369667854563
 30
0.0
 10
25.34987433279374
 20
40.18358953517598
 30
0.0
  0
SPLINE
  5
14A
330
70
100
AcDbEntity
  8
Visible (ISO)
100
AcDbSpline
210
0.0
220
0.0
230
1.0
 70
     8
 71
     3
 72
    22
 73
    18
 74
     0
 42
0.000000001
 43
0.0000000001
 40
-1.857456679070597
 40
-1.857456679070597
 40
-1.857456679070597
 40
-1.857456679070597
 40
-1.761155869435877
 40
-1.761155869435877
 40
-1.601050794335744
 40
-1.601050794335744
 40
-1.440945712013208
 40
-1.440945712013208
 40
-1.280840629690673
 40
-1.280840629690673
 40
-1.120735547368138
 40
-1.120735547368138
 40
-0.9606304650456035
 40
-0.9606304650456035
 40
-0.8005253899454702
 40
-0.8005253899454702
 40
-0.7042245803107507
 40
-0.7042245803107507
 40
-0.7042245803107507
 40
-0.7042245803107507
 10
33.79987433263457
 20
39.53358953414709
 30
0.0
 10
33.7487505195795
 20
39.20325105032668
 30
0.0
 10
33.65678302405312
 20
38.87203536930572
 30
0.0
 10
33.30946826950781
 20
38.03357785676334
 30
0.0
 10
32.98239488399904
 20
37.55570244629559
 30
0.0
 10
32.22776140465329
 20
36.80106896694984
 30
0.0
 10
31.74988600238182
 20
36.47399559322697
 30
0.0
 10
30.70278601002172
 20
36.04025474322328
 30
0.0
 10
30.13355794053556
 20
35.933589535176
 30
0.0
 10
29.06619072505199
 20
35.933589535176
 30
0.0
 10
28.49696265556583
 20
36.04025474322328
 30
0.0
 10
27.44986266320575
 20
36.47399559322697
 30
0.0
 10
26.97198726093429
 20
36.80106896694984
 30
0.0
 10
26.21735378158854
 20
37.55570244629559
 30
0.0
 10
25.89028039607978
 20
38.03357785676334
 30
0.0
 10
25.54296564153448
 20
38.87203536930572
 30
0.0
 10
25.4509981460081
 20
39.20325105032668
 30
0.0
 10
25.39987433295304
 20
39.53358953414709
 30
0.0
  0
SPLINE
  5
14B
330
70
100
AcDbEntity
  8
Visible (ISO)
100
AcDbSpline
210
0.0
220
0.0
230
1.0
 70
     8
 71
     3
 72
    71
 73
    67
 74
     0
 42
0.000000001
 43
0.0000000001
 40
-0.06522435549567
 40
-0.06522435549567
 40
-0.06522435549567
 40
-0.06522435549567
 40
-0.06225965751386
 40
-0.06225965751386
 40
-0.06225965751386
 40
-0.05929495953205
 40
-0.05929495953205
 40
-0.05929495953205
 40
-0.05633026155024
 40
-0.05633026155024
 40
-0.05633026155024
 40
-0.05336556356843
 40
-0.05336556356843
 40
-0.05336556356843
 40
-0.05040086558662
 40
-0.05040086558662
 40
-0.05040086558662
 40
-0.04743616760481
 40
-0.04743616760481
 40
-0.04743616760481
 40
-0.044471469623
 40
-0.044471469623
 40
-0.044471469623
 40
-0.04150677164119
 40
-0.04150677164119
 40
-0.04150677164119
 40
-0.03854207365938
 40
-0.03854207365938
 40
-0.03854207365938
 40
-0.03557737567757
 40
-0.03557737567757
 40
-0.03557737567757
 40
-0.03261267769576
 40
-0.03261267769576
 40
-0.03261267769576
 40
-0.02964797971395
 40
-0.02964797971395
 40
-0.02964797971395
 40
-0.02668328173214
 40
-0.02668328173214
 40
-0.02668328173214
 40
-0.02371858375033
 40
-0.02371858375033
 40
-0.02371858375033
 40
-0.02075388576852
 40
-0.02075388576852
 40
-0.02075388576852
 40
-0.01778918778671
 40
-0.01778918778671
 40
-0.01778918778671
 40
-0.0148244898049
 40
-0.0148244898049
 40
-0.0148244898049
 40
-0.01185979182309
 40
-0.01185979182309
 40
-0.01185979182309
 40
-0.008895093841278
 40
-0.008895093841278
 40
-0.008895093841278
 40
-0.005930395859468
 40
-0.005930395859468
 40
-0.005930395859468
 40
-0.002965697877658
 40
-0.002965697877658
 40
-0.002965697877658
 40
-0.000000999895848
 40
-0.000000999895848
 40
-0.000000999895848
 40
-0.000000999895848
 10
33.84987433279389
 20
40.1835895351762
 30
0.0
 10
33.84987432965959
 20
40.17369668293351
 30
0.0
 10
33.84983978535176
 20
40.16380451821466
 30
0.0
 10
33.84977070938732
 20
40.15391317928005
 30
0.0
 10
33.8497016334229
 20
40.14402184034546
 30
0.0
 10
33.84959802579876
 20
40.13413132719294
 30
0.0
 10
33.84945990318998
 20
40.1242417781681
 30
0.0
 10
33.84932178058118
 20
40.11435222914328
 30
0.0
 10
33.84914914298085
 20
40.104463644244
 30
0.0
 10
33.84894200292166
 20
40.09457616171015
 30
0.0
 10
33.84873486286248
 20
40.08468867917631
 30
0.0
 10
33.84849322033395
 20
40.07480229900576
 30
0.0
 10
33.84821708657053
 20
40.0649171593217
 30
0.0
 10
33.84794095280712
 20
40.05503201963764
 30
0.0
 10
33.8476303277946
 20
40.04514812043797
 30
0.0
 10
33.84728522068684
 20
40.03526560015362
 30
0.0
 10
33.84694011357908
 20
40.02538307986927
 30
0.0
 10
33.84656052435818
 20
40.01550193849811
 30
0.0
 10
33.84614646029751
 20
40.00562231328157
 30
0.0
 10
33.84573239623684
 20
39.99574268806504
 30
0.0
 10
33.84528385731486
 20
39.98586457900099
 30
0.0
 10
33.84480084943928
 20
39.97598812789523
 30
0.0
 10
33.8443178415637
 20
39.96611167678947
 30
0.0
 10
33.84380036470914
 20
39.95623688363992
 30
0.0
 10
33.84324842230869
 20
39.94636387348655
 30
0.0
 10
33.84269647990826
 20
39.93649086333318
 30
0.0
 10
33.84211007193362
 20
39.92661963617379
 30
0.0
 10
33.84148920502757
 20
39.91675038003839
 30
0.0
 10
33.84086833812154
 20
39.90688112390298
 30
0.0
 10
33.84021301224908
 20
39.89701383878989
 30
0.0
 10
33.8395232180228
 20
39.88714847821245
 30
0.0
 10
33.83883342379651
 20
39.877283117635
 30
0.0
 10
33.83810916119042
 20
39.86741968158968
 30
0.0
 10
33.83735047901943
 20
39.85755899953687
 30
0.0
 10
33.83659179684843
 20
39.84769831748407
 30
0.0
 10
33.83579869508164
 20
39.8378403894217
 30
0.0
 10
33.83497125687358
 20
39.82798610919791
 30
0.0
 10
33.83414381866551
 20
39.81813182897412
 30
0.0
 10
33.83328204396187
 20
39.80828119658838
 30
0.0
 10
33.83238595357312
 20
39.79843420084613
 30
0.0
 10
33.83148986318437
 20
39.78858720510387
 30
0.0
 10
33.83055945706752
 20
39.77874384600274
 30
0.0
 10
33.82959476989312
 20
39.76890435481926
 30
0.0
 10
33.82863008271872
 20
39.75906486363578
 30
0.0
 10
33.82763111443544
 20
39.74922924036807
 30
0.0
 10
33.82659789346056
 20
39.73939765134529
 30
0.0
 10
33.82556467248568
 20
39.7295660623225
 30
0.0
 10
33.82449719876529
 20
39.71973850754267
 30
0.0
 10
33.82339550027561
 20
39.70991517079911
 30
0.0
 10
33.82229380178593
 20
39.70009183405556
 30
0.0
 10
33.82115787846868
 20
39.69027271534636
 30
0.0
 10
33.81998775681282
 20
39.68045799388408
 30
0.0
 10
33.81881763515695
 20
39.6706432724218
 30
0.0
 10
33.81761331510039
 20
39.6608329482045
 30
0.0
 10
33.81637482270645
 20
39.65102720181265
 30
0.0
 10
33.81513633031252
 20
39.64122145542081
 30
0.0
 10
33.81386366551492
 20
39.63142028685248
 30
0.0
 10
33.81255685402029
 20
39.6216238764873
 30
0.0
 10
33.81125004252567
 20
39.61182746612212
 30
0.0
 10
33.80990908426439
 20
39.60203581395818
 30
0.0
 10
33.80853400710282
 20
39.59224910068073
 30
0.0
 10
33.80715892994126
 20
39.58246238740329
 30
0.0
 10
33.80574973380279
 20
39.57268061301041
 30
0.0
 10
33.80430644302955
 20
39.56290395821624
 30
0.0
 10
33.80286315225632
 20
39.55312730342207
 30
0.0
 10
33.80138576677923
 20
39.5433557682249
 30
0.0
 10
33.79987433263465
 20
39.53358953414738
 30
0.0
  0
SPLINE
  5
14C
330
70
100
AcDbEntity
  8
Visible (ISO)
100
AcDbSpline
210
0.0
220
0.0
230
1.0
 70
     8
 71
     3
 72
    71
 73
    67
 74
     0
 42
0.000000001
 43
0.0000000001
 40
-0.06529183341916
 40
-0.06529183341916
 40
-0.06529183341916
 40
-0.06529183341916
 40
-0.06232406826374
 40
-0.06232406826374
 40
-0.06232406826374
 40
-0.05935630310833
 40
-0.05935630310833
 40
-0.05935630310833
 40
-0.05638853795291
 40
-0.05638853795291
 40
-0.05638853795291
 40
-0.0534207727975
 40
-0.0534207727975
 40
-0.0534207727975
 40
-0.05045300764208
 40
-0.05045300764208
 40
-0.05045300764208
 40
-0.04748524248667
 40
-0.04748524248667
 40
-0.04748524248667
 40
-0.04451747733125
 40
-0.04451747733125
 40
-0.04451747733125
 40
-0.04154971217584
 40
-0.04154971217584
 40
-0.04154971217584
 40
-0.03858194702042
 40
-0.03858194702042
 40
-0.03858194702042
 40
-0.03561418186501
 40
-0.03561418186501
 40
-0.03561418186501
 40
-0.03264641670959
 40
-0.03264641670959
 40
-0.03264641670959
 40
-0.02967865155418
 40
-0.02967865155418
 40
-0.02967865155418
 40
-0.02671088639876
 40
-0.02671088639876
 40
-0.02671088639876
 40
-0.02374312124334
 40
-0.02374312124334
 40
-0.02374312124334
 40
-0.02077535608793
 40
-0.02077535608793
 40
-0.02077535608793
 40
-0.01780759093251
 40
-0.01780759093251
 40
-0.01780759093251
 40
-0.0148398257771
 40
-0.0148398257771
 40
-0.0148398257771
 40
-0.01187206062168
 40
-0.01187206062168
 40
-0.01187206062168
 40
-0.008904295466267
 40
-0.008904295466267
 40
-0.008904295466267
 40
-0.005936530310852
 40
-0.005936530310852
 40
-0.005936530310852
 40
-0.002968765155436
 40
-0.002968765155436
 40
-0.002968765155436
 40
-0.000001000000021
 40
-0.000001000000021
 40
-0.000001000000021
 40
-0.000001000000021
 10
33.79987433263482
 20
40.83358953620431
 30
0.0
 10
33.80138574629839
 20
40.82382343447853
 30
0.0
 10
33.80286312068475
 20
40.81405194924927
 30
0.0
 10
33.80430640803997
 20
40.80427527712701
 30
0.0
 10
33.80574969539519
 20
40.79449860500478
 30
0.0
 10
33.8071588957882
 20
40.78471674598783
 30
0.0
 10
33.80853398314266
 20
40.77492989587773
 30
0.0
 10
33.80990907049712
 20
40.76514304576758
 30
0.0
 10
33.81125004488952
 20
40.75535120456236
 30
0.0
 10
33.81255687671254
 20
40.74555456803476
 30
0.0
 10
33.81386370853554
 20
40.73575793150722
 30
0.0
 10
33.81513639785865
 20
40.72595649965543
 30
0.0
 10
33.81637491722725
 20
40.71615046794907
 30
0.0
 10
33.81761343659587
 20
40.70634443624268
 30
0.0
 10
33.81881778607614
 20
40.6965338046798
 30
0.0
 10
33.8199879378551
 20
40.68671876892461
 30
0.0
 10
33.82115808963405
 20
40.67690373316943
 30
0.0
 10
33.82229404377365
 20
40.66708429322002
 30
0.0
 10
33.8233957720245
 20
40.65726064339978
 30
0.0
 10
33.82449750027534
 20
40.64743699357951
 30
0.0
 10
33.82556500269557
 20
40.63760913388647
 30
0.0
 10
33.82659824957898
 20
40.62777726312254
 30
0.0
 10
33.82763149646239
 20
40.61794539235862
 30
0.0
 10
33.82863048786284
 20
40.60810951052184
 30
0.0
 10
33.8295951935155
 20
40.59826979933583
 30
0.0
 10
33.83055989916817
 20
40.58843008814978
 30
0.0
 10
33.83149031912422
 20
40.57858654761265
 30
0.0
 10
33.83238641730578
 20
40.56873942295562
 30
0.0
 10
33.83328251548734
 20
40.55889229829863
 30
0.0
 10
33.8341442919377
 20
40.54904158951941
 30
0.0
 10
33.8349717228003
 20
40.53918730475317
 30
0.0
 10
33.83579915366291
 20
40.52933301998693
 30
0.0
 10
33.83659223899082
 20
40.51947515923313
 30
0.0
 10
33.83735089861287
 20
40.50961461722554
 30
0.0
 10
33.83810955823491
 20
40.49975407521798
 30
0.0
 10
33.83883379218102
 20
40.48989085195438
 30
0.0
 10
33.83952356113002
 20
40.48002568236459
 30
0.0
 10
33.84021333007903
 20
40.47016051277478
 30
0.0
 10
33.840868634059
 20
40.46029339685545
 30
0.0
 10
33.84148947988216
 20
40.45042431353375
 30
0.0
 10
33.84211032570533
 20
40.44055523021206
 30
0.0
 10
33.8426967134062
 20
40.43068417948627
 30
0.0
 10
33.84324863699659
 20
40.42081134266211
 30
0.0
 10
33.84380056058699
 20
40.41093850583798
 30
0.0
 10
33.84431802009537
 20
40.40106388291326
 30
0.0
 10
33.84480101187261
 20
40.39118760081501
 30
0.0
 10
33.84528400364986
 20
40.38131131871671
 30
0.0
 10
33.8457325277213
 20
40.37143337744281
 30
0.0
 10
33.84614657819266
 20
40.36155391837918
 30
0.0
 10
33.84656062866401
 20
40.35167445931559
 30
0.0
 10
33.84694020555683
 20
40.34179348246019
 30
0.0
 10
33.84728530154657
 20
40.33191112525272
 30
0.0
 10
33.8476303975363
 20
40.32202876804521
 30
0.0
 10
33.84794101264084
 20
40.31214503048352
 30
0.0
 10
33.8482171376702
 20
40.30226005103175
 30
0.0
 10
33.84849326269956
 20
40.29237507158001
 30
0.0
 10
33.84873489766795
 20
40.28248885023606
 30
0.0
 10
33.84894203129933
 20
40.27260152520081
 30
0.0
 10
33.84914916493072
 20
40.26271420016558
 30
0.0
 10
33.8493217972356
 20
40.25282577143694
 30
0.0
 10
33.84945991564044
 20
40.24293637732064
 30
0.0
 10
33.84959803404527
 20
40.23304698320434
 30
0.0
 10
33.84970163855695
 20
40.22315662369829
 30
0.0
 10
33.8497707124599
 20
40.21326543721794
 30
0.0
 10
33.84983978636285
 20
40.20337425073762
 30
0.0
 10
33.84987432966017
 20
40.19348223728084
 30
0.0
 10
33.84987433279397
 20
40.18358953517598
 30
0.0
  0
SPLINE
  5
14D
330
70
100
AcDbEntity
  8
Visible (ISO)
100
AcDbSpline
210
0.0
220
0.0
230
1.0
 70
     8
 71
     3
 72
    23
 73
    19
 74
     0
 42
0.000000001
 43
0.0000000001
 40
1.985065210001413
 40
1.985065210001413
 40
1.985065210001413
 40
1.985065210001413
 40
2.081366019636143
 40
2.081366019636143
 40
2.241471094736277
 40
2.241471094736277
 40
2.401576177058812
 40
2.401576177058812
 40
2.561681259381347
 40
2.561681259381347
 40
2.561681259381347
 40
2.721786341703882
 40
2.721786341703882
 40
2.881891424026417
 40
2.881891424026417
 40
3.041996499126551
 40
3.041996499126551
 40
3.138297308761281
 40
3.138297308761281
 40
3.138297308761281
 40
3.138297308761281
 10
33.79987433263458
 20
40.83358953620479
 30
0.0
 10
33.74875051957951
 20
41.16392802002524
 30
0.0
 10
33.65678302405314
 20
41.49514370104623
 30
0.0
 10
33.30946826950781
 20
42.33360121358865
 30
0.0
 10
32.98239488399904
 20
42.81147662405639
 30
0.0
 10
32.22776140465329
 20
43.56611010340215
 30
0.0
 10
31.74988600238182
 20
43.89318347712502
 30
0.0
 10
30.70278601002172
 20
44.32692432712871
 30
0.0
 10
30.13355794053556
 20
44.43358953517599
 30
0.0
 10
29.59987433279378
 20
44.43358953517599
 30
0.0
 10
29.066190725052
 20
44.43358953517599
 30
0.0
 10
28.49696265556584
 20
44.32692432712871
 30
0.0
 10
27.44986266320575
 20
43.89318347712502
 30
0.0
 10
26.97198726093429
 20
43.56611010340215
 30
0.0
 10
26.21735378158855
 20
42.81147662405639
 30
0.0
 10
25.89028039607978
 20
42.33360121358865
 30
0.0
 10
25.54296564153446
 20
41.49514370104623
 30
0.0
 10
25.45099814600809
 20
41.16392802002524
 30
0.0
 10
25.39987433295302
 20
40.83358953620479
 30
0.0
  0
SPLINE
  5
14E
330
70
100
AcDbEntity
  8
Visible (ISO)
100
AcDbSpline
210
0.0
220
0.0
230
1.0
 70
     8
 71
     3
 72
    71
 73
    67
 74
     0
 42
0.000000001
 43
0.0000000001
 40
-0.06522422990639
 40
-0.06522422990639
 40
-0.06522422990639
 40
-0.06522422990639
 40
-0.0622595376379159
 40
-0.0622595376379159
 40
-0.0622595376379159
 40
-0.0592948453694418
 40
-0.0592948453694418
 40
-0.0592948453694418
 40
-0.0563301531009677
 40
-0.0563301531009677
 40
-0.0563301531009677
 40
-0.0533654608325036
 40
-0.0533654608325036
 40
-0.0533654608325036
 40
-0.0504007685640296
 40
-0.0504007685640296
 40
-0.0504007685640296
 40
-0.0474360762955555
 40
-0.0474360762955555
 40
-0.0474360762955555
 40
-0.0444713840270814
 40
-0.0444713840270814
 40
-0.0444713840270814
 40
-0.0415066917586073
 40
-0.0415066917586073
 40
-0.0415066917586073
 40
-0.0385419994901332
 40
-0.0385419994901332
 40
-0.0385419994901332
 40
-0.0355773072216691
 40
-0.0355773072216691
 40
-0.0355773072216691
 40
-0.032612614953195
 40
-0.032612614953195
 40
-0.032612614953195
 40
-0.0296479226847209
 40
-0.0296479226847209
 40
-0.0296479226847209
 40
-0.0266832304162468
 40
-0.0266832304162468
 40
-0.0266832304162468
 40
-0.0237185381477727
 40
-0.0237185381477727
 40
-0.0237185381477727
 40
-0.0207538458792986
 40
-0.0207538458792986
 40
-0.0207538458792986
 40
-0.0177891536108346
 40
-0.0177891536108346
 40
-0.0177891536108346
 40
-0.0148244613423605
 40
-0.0148244613423605
 40
-0.0148244613423605
 40
-0.0118597690738864
 40
-0.0118597690738864
 40
-0.0118597690738864
 40
-0.0088950768054133
 40
-0.0088950768054133
 40
-0.0088950768054133
 40
-0.0059303845369412
 40
-0.0059303845369412
 40
-0.0059303845369412
 40
-0.0029656922684681
 40
-0.0029656922684681
 40
-0.0029656922684681
 40
-0.000000999999996
 40
-0.000000999999996
 40
-0.000000999999996
 40
-0.000000999999996
 10
25.34987433281696
 20
40.18358953517597
 30
0.0
 10
25.34987435918181
 20
40.19348223402041
 30
0.0
 10
25.34990892560556
 20
40.20337432942203
 30
0.0
 10
25.34997802261944
 20
40.21326566812034
 30
0.0
 10
25.35004711963332
 20
40.22315700681867
 30
0.0
 10
25.35015074724042
 20
40.23304758881585
 30
0.0
 10
25.35028888881451
 20
40.24293726076591
 30
0.0
 10
25.3504270303886
 20
40.25282693271598
 30
0.0
 10
25.35059968593658
 20
40.26271569462102
 30
0.0
 10
25.35080684297322
 20
40.27260339324069
 30
0.0
 10
25.35101400000986
 20
40.28249109186034
 30
0.0
 10
25.35125565854566
 20
40.29237772719672
 30
0.0
 10
25.35153180739243
 20
40.30226314612521
 30
0.0
 10
25.3518079562392
 20
40.31214856505373
 30
0.0
 10
25.35211859541114
 20
40.32203276757647
 30
0.0
 10
25.35246371579657
 20
40.33191560026333
 30
0.0
 10
25.35280883618199
 20
40.3417984329502
 30
0.0
 10
25.35318843779879
 20
40.3516798958033
 30
0.0
 10
25.35360251341903
 20
40.36155983657228
 30
0.0
 10
25.35401658903928
 20
40.37143977734126
 30
0.0
 10
25.35446513868451
 20
40.38131819602821
 30
0.0
 10
25.35494815646547
 20
40.39119493585419
 30
0.0
 10
25.35543117424645
 20
40.40107167568016
 30
0.0
 10
25.35594866018853
 20
40.4109467366472
 30
0.0
 10
25.35650061096047
 20
40.42081997860747
 30
0.0
 10
25.35705256173241
 20
40.43069322056772
 30
0.0
 10
25.3576389773625
 20
40.44056464352338
 30
0.0
 10
25.3582598509791
 20
40.45043404483855
 30
0.0
 10
25.35888072459571
 20
40.4603034461537
 30
0.0
 10
25.35953605623402
 20
40.47017082583002
 30
0.0
 10
25.36022585626471
 20
40.48003621387383
 30
0.0
 10
25.36091565629539
 20
40.48990160191767
 30
0.0
 10
25.36163992474359
 20
40.49976499833252
 30
0.0
 10
25.36239860918031
 20
40.50962556342923
 30
0.0
 10
25.36315729361704
 20
40.51948612852592
 30
0.0
 10
25.36395039407434
 20
40.52934386230638
 30
0.0
 10
25.36477783026873
 20
40.53919796803722
 30
0.0
 10
25.36560526646312
 20
40.54905207376807
 30
0.0
 10
25.36646703844818
 20
40.55890255145001
 30
0.0
 10
25.36736312467763
 20
40.56874938638188
 30
0.0
 10
25.36825921090707
 20
40.57859622131375
 30
0.0
 10
25.36918961142409
 20
40.58843941349784
 30
0.0
 10
25.37015429178512
 20
40.59827873870212
 30
0.0
 10
25.37111897214615
 20
40.60811806390641
 30
0.0
 10
25.37211793240248
 20
40.61795352213279
 30
0.0
 10
25.3731511441034
 20
40.62778494526984
 30
0.0
 10
25.37418435580431
 20
40.63761636840687
 30
0.0
 10
25.37525181900374
 20
40.64744375645658
 30
0.0
 10
25.37635350575842
 20
40.65726692620821
 30
0.0
 10
25.37745519251311
 20
40.66709009595989
 30
0.0
 10
25.37859110288128
 20
40.67690904741545
 30
0.0
 10
25.37976121038497
 20
40.68672360131093
 30
0.0
 10
25.38093131788865
 20
40.6965381552064
 30
0.0
 10
25.38213562258992
 20
40.70634831154373
 30
0.0
 10
25.38337409843732
 20
40.7161538898607
 30
0.0
 10
25.38461257428472
 20
40.72595946817767
 30
0.0
 10
25.38588522134454
 20
40.7357604684762
 30
0.0
 10
25.38719201391579
 20
40.74555671044912
 30
0.0
 10
25.38849880648704
 20
40.75535295242203
 30
0.0
 10
25.38983974463935
 20
40.76514443607124
 30
0.0
 10
25.39121480050779
 20
40.77493098079594
 30
0.0
 10
25.39258985637623
 20
40.78471752552063
 30
0.0
 10
25.39399903003743
 20
40.79449913132276
 30
0.0
 10
25.3954422971419
 20
40.80427561756898
 30
0.0
 10
25.39688556424636
 20
40.81405210381517
 30
0.0
 10
25.39836292486318
 20
40.82382347050717
 30
0.0
 10
25.39987433295262
 20
40.83358953620446
 30
0.0
  0
LINE
  5
14F
330
70
100
AcDbEntity
  8
Visible (ISO)
100
AcDbLine
 10
25.3998743327937
 20
50.18358953517598
 30
0.0
 11
24.59987433279309
 21
50.18358953517598
 31
0.0
  0
LINE
  5
150
330
70
100
AcDbEntity
  8
Visible (ISO)
100
AcDbLine
 10
34.59987433279383
 20
50.18358953517598
 30
0.0
 11
33.79987433279069
 21
50.18358953517598
 31
0.0
  0
SPLINE
  5
151
330
70
100
AcDbEntity
  8
Visible (ISO)
100
AcDbSpline
210
0.0
220
0.0
230
1.0
 70
    28
 71
     2
 72
     6
 73
     3
 74
     0
 42
0.000000001
 43
0.0000000001
 40
1.193179803138999
 40
1.193179803138999
 40
1.193179803138999
 40
4.676516384342
 40
4.676516384342
 40
4.676516384342
 10
19.59987433278559
 20
30.18358953517598
 30
0.0
 41
1.615432893254999
 10
19.59987433278439
 20
40.18358953517593
 30
0.0
 41
2.284567106744999
 10
19.59987433278559
 20
50.18358953517598
 30
0.0
 41
1.615432893254999
  0
LINE
  5
152
330
70
100
AcDbEntity
  8
Visible (ISO)
100
AcDbLine
 10
33.7998743327907
 20
30.18358953517598
 30
0.0
 11
34.59987433279383
 21
30.18358953517598
 31
0.0
  0
LINE
  5
153
330
70
100
AcDbEntity
  8
Visible (ISO)
100
AcDbLine
 10
25.3998743327937
 20
50.18358953517598
 30
0.0
 11
33.7998743327937
 21
50.18358953517598
 31
0.0
  0
LINE
  5
154
330
70
100
AcDbEntity
  8
Visible (ISO)
100
AcDbLine
 10
33.7998743327937
 20
30.18358953517598
 30
0.0
 11
25.3998743327937
 21
30.18358953517598
 31
0.0
  0
LINE
  5
155
330
70
100
AcDbEntity
  8
Visible (ISO)
100
AcDbLine
 10
24.59987433279309
 20
30.18358953517598
 30
0.0
 11
25.3998743327967
 21
30.18358953517598
 31
0.0
  0
SPLINE
  5
156
330
70
100
AcDbEntity
  8
Visible (ISO)
100
AcDbSpline
210
0.0
220
0.0
230
1.0
 70
    28
 71
     2
 72
     6
 73
     3
 74
     0
 42
0.000000001
 43
0.0000000001
 40
1.193179803138999
 40
1.193179803138999
 40
1.193179803138999
 40
4.676516384342
 40
4.676516384342
 40
4.676516384342
 10
39.59987433278559
 20
50.18358953517598
 30
0.0
 41
1.615432893254999
 10
39.59987433278438
 20
40.18358953517601
 30
0.0
 41
2.284567106744999
 10
39.59987433278559
 20
30.18358953517598
 30
0.0
 41
1.615432893254999
  0
SPLINE
  5
157
330
70
100
AcDbEntity
  8
Visible (ISO)
100
AcDbSpline
210
0.0
220
0.0
230
1.0
 70
    28
 71
     2
 72
     6
 73
     3
 74
     0
 42
0.000000001
 43
0.0000000001
 40
1.576725433212
 40
1.576725433212
 40
1.576725433212
 40
2.854642247750999
 40
2.854642247750999
 40
2.854642247750999
 10
34.59987433278509
 20
30.18358953517599
 30
0.0
 41
1.219572546448999
 10
34.59987433278442
 20
34.53288686739699
 30
0.0
 41
1.198766714335999
 10
34.59987433278421
 20
36.86696474482098
 30
0.0
 41
1.0
  0
SPLINE
  5
158
330
70
100
AcDbEntity
  8
Visible (ISO)
100
AcDbSpline
210
0.0
220
0.0
230
1.0
 70
    28
 71
     2
 72
     6
 73
     3
 74
     0
 42
0.000000001
 43
0.0000000001
 40
1.193179803138999
 40
1.193179803138999
 40
1.193179803138999
 40
1.942239091557
 40
1.942239091557
 40
1.942239091557
 10
39.59987433278559
 20
30.18358953517598
 30
0.0
 41
1.615432893254999
 10
36.80746653334826
 20
30.18358953517599
 30
0.0
 41
1.759324012051
 10
34.59987433278509
 20
30.18358953517598
 30
0.0
 41
1.841330224498
  0
SPLINE
  5
159
330
70
100
AcDbEntity
  8
Visible (ISO)
100
AcDbSpline
210
0.0
220
0.0
230
1.0
 70
    28
 71
     2
 72
     6
 73
     3
 74
     0
 42
0.000000001
 43
0.0000000001
 40
3.927457095923999
 40
3.927457095923999
 40
3.927457095923999
 40
4.676516384342
 40
4.676516384342
 40
4.676516384342
 10
34.59987433278509
 20
50.18358953517598
 30
0.0
 41
1.841330224498
 10
36.80746653334626
 20
50.18358953517598
 30
0.0
 41
1.759324012051
 10
39.59987433278559
 20
50.18358953517598
 30
0.0
 41
1.615432893254999
  0
SPLINE
  5
15A
330
70
100
AcDbEntity
  8
Visible (ISO)
100
AcDbSpline
210
0.0
220
0.0
230
1.0
 70
    28
 71
     2
 72
     6
 73
     3
 74
     0
 42
0.000000001
 43
0.0000000001
 40
0.0
 40
0.0
 40
0.0
 40
1.277916814539
 40
1.277916814539
 40
1.277916814539
 10
34.59987433278421
 20
43.50021432553098
 30
0.0
 41
1.0
 10
34.59987433278442
 20
45.83429220295498
 30
0.0
 41
1.198766714335999
 10
34.59987433278509
 20
50.18358953517598
 30
0.0
 41
1.219572546448999
  0
ARC
  5
15B
330
70
100
AcDbEntity
  8
Visible (ISO)
100
AcDbCircle
 10
29.59987433278421
 20
40.18358953517598
 30
0.0
 40
6.0
100
AcDbArc
 50
326.4426902306458
 51
33.55730976935434
  0
SPLINE
  5
15C
330
70
100
AcDbEntity
  8
Visible (ISO)
100
AcDbSpline
210
0.0
220
0.0
230
1.0
 70
    28
 71
     2
 72
     6
 73
     3
 74
     0
 42
0.000000001
 43
0.0000000001
 40
1.576725433212
 40
1.576725433212
 40
1.576725433212
 40
2.854642247750999
 40
2.854642247750999
 40
2.854642247750999
 10
24.59987433278509
 20
50.18358953517598
 30
0.0
 41
1.219572546448999
 10
24.59987433278442
 20
45.83429220295498
 30
0.0
 41
1.198766714335999
 10
24.59987433278421
 20
43.50021432553098
 30
0.0
 41
1.0
  0
SPLINE
  5
15D
330
70
100
AcDbEntity
  8
Visible (ISO)
100
AcDbSpline
210
0.0
220
0.0
230
1.0
 70
    28
 71
     2
 72
     6
 73
     3
 74
     0
 42
0.000000001
 43
0.0000000001
 40
1.193179803138999
 40
1.193179803138999
 40
1.193179803138999
 40
1.942239091557
 40
1.942239091557
 40
1.942239091557
 10
19.59987433278559
 20
50.18358953517598
 30
0.0
 41
1.615432893254999
 10
22.39228213222226
 20
50.18358953517598
 30
0.0
 41
1.759324012051
 10
24.59987433278509
 20
50.18358953517598
 30
0.0
 41
1.841330224498
  0
SPLINE
  5
15E
330
70
100
AcDbEntity
  8
Visible (ISO)
100
AcDbSpline
210
0.0
220
0.0
230
1.0
 70
    28
 71
     2
 72
     6
 73
     3
 74
     0
 42
0.000000001
 43
0.0000000001
 40
3.927457095923999
 40
3.927457095923999
 40
3.927457095923999
 40
4.676516384342
 40
4.676516384342
 40
4.676516384342
 10
24.59987433278509
 20
30.18358953517598
 30
0.0
 41
1.841330224498
 10
22.39228213222426
 20
30.18358953517599
 30
0.0
 41
1.759324012051
 10
19.59987433278559
 20
30.18358953517598
 30
0.0
 41
1.615432893254999
  0
SPLINE
  5
15F
330
70
100
AcDbEntity
  8
Visible (ISO)
100
AcDbSpline
210
0.0
220
0.0
230
1.0
 70
    28
 71
     2
 72
     6
 73
     3
 74
     0
 42
0.000000001
 43
0.0000000001
 40
0.0
 40
0.0
 40
0.0
 40
1.277916814539
 40
1.277916814539
 40
1.277916814539
 10
24.59987433278421
 20
36.86696474482098
 30
0.0
 41
1.0
 10
24.59987433278442
 20
34.53288686739699
 30
0.0
 41
1.198766714335999
 10
24.59987433278509
 20
30.18358953517599
 30
0.0
 41
1.219572546448999
  0
ARC
  5
160
330
70
100
AcDbEntity
  8
Visible (ISO)
100
AcDbCircle
 10
29.59987433278421
 20
40.18358953517598
 30
0.0
 40
6.0
100
AcDbArc
 50
146.4426902306459
 51
213.557309769354
  0
LINE
  5
161
330
70
100
AcDbEntity
  8
Visible (ISO)
100
AcDbLine
 10
24.59987433300828
 20
36.8669647440351
 30
0.0
 11
24.59987433300828
 21
43.50021432631685
 31
0.0
  0
LINE
  5
162
330
70
100
AcDbEntity
  8
Visible (ISO)
100
AcDbLine
 10
34.59987433256013
 20
43.50021432631686
 30
0.0
 11
34.59987433256013
 21
36.8669647440351
 31
0.0
  0
MTEXT
  5
163
330
70
100
AcDbEntity
  8
Symbol (ISO)
100
AcDbMText
 10
115.2669513814257
 20
41.2163070785282
 30
0.0
 40
1.749999970197677
 41
3.673701286315917
 46
0.0
 71
     1
 72
     1
  1
{M10}
  7
Note Text (DIN)
 73
     1
 44
1.0
  0
LINE
  5
165
330
70
100
AcDbEntity
  8
Center Mark (ISO)
  6
Continuous
100
AcDbLine
 10
78.26190834255237
 20
40.18358953517598
 30
0.0
 11
64.76190834255238
 21
40.18358953517598
 31
0.0
  0
LINE
  5
166
330
70
100
AcDbEntity
  8
Center Mark (ISO)
  6
Continuous
100
AcDbLine
 10
71.51190834255237
 20
46.93358953517598
 30
0.0
 11
71.51190834255237
 21
33.43358953517598
 31
0.0
  0
LINE
  5
167
330
70
100
AcDbEntity
  8
Centerline (ISO)
  6
Continuous
100
AcDbLine
 10
71.51190834256206
 20
60.21188989263745
 30
0.0
 11
71.51190834256206
 21
85.82105260916021
 31
0.0
  0
LINE
  5
168
330
70
100
AcDbEntity
  8
Center Mark (ISO)
  6
Continuous
100
AcDbLine
 10
41.93955274505896
 20
40.18320904540448
 30
0.0
 11
18.13809584843945
 21
40.18320904540448
 31
0.0
  0
LINE
  5
169
330
70
100
AcDbEntity
  8
Center Mark (ISO)
  6
Continuous
100
AcDbLine
 10
29.5998743327938
 20
52.52914107768063
 30
0.0
 11
29.5998743327938
 21
27.9744732965441
 31
0.0
  0
LINE
  5
16A
330
70
100
AcDbEntity
  8
Centerline (ISO)
  6
Continuous
100
AcDbLine
 10
112.0619083425524
 20
40.18358953517599
 30
0.0
 11
89.99439293506922
 21
40.18358953517598
 31
0.0
  0
LINE
  5
16B
330
70
100
AcDbEntity
  8
Centerline (ISO)
  6
Continuous
100
AcDbLine
 10
90.66098636992407
 20
72.70973402391859
 30
0.0
 11
111.261908342562
 21
72.70973402391859
 31
0.0
  0
DIMENSION
  5
16C
330
70
100
AcDbEntity
  8
Dimension (ISO)
100
AcDbDimension
280
     0
  2
*D4
 10
71.51190834255237
 20
23.30456715411936
 30
0.0
 11
91.51190834255237
 21
23.30456715411936
 31
0.0
 70
   160
  1
<>
 42
40.0
 73
     0
 74
     0
 75
     0
  3
Default (DIN)
100
AcDbAlignedDimension
 13
111.5119083425524
 23
31.883589535176
 33
0.0
 14
71.51190834255237
 24
33.43358953517598
 34
0.0
100
AcDbRotatedDimension
1001
ACAD
1000
DSTYLE
1002
{
1070
   172
1070
     0
1070
   289
1070
     1
1070
   271
1070
     0
1070
   272
1070
     2
1070
    48
1040
0.0
1070
    47
1040
0.0
1002
}
  0
DIMENSION
  5
243
330
70
100
AcDbEntity
  8
Dimension (ISO)
100
AcDbDimension
280
     0
  2
*D5
 10
59.51190834255237
 20
18.78530314532122
 30
0.0
 11
85.51190834255237
 21
18.78530314532122
 31
0.0
 70
   160
  1
<>
 42
52.0
 73
     0
 74
     0
 75
     0
  3
Default (DIN)
100
AcDbAlignedDimension
 13
111.5119083425524
 23
31.883589535176
 33
0.0
 14
59.51190834255237
 24
36.86696474417188
 34
0.0
100
AcDbRotatedDimension
1001
ACAD
1000
DSTYLE
1002
{
1070
   172
1070
     0
1070
   289
1070
     1
1070
   271
1070
     0
1070
   272
1070
     2
1070
    48
1040
0.0
1070
    47
1040
0.0
1002
}
  0
DIMENSION
  5
319
330
70
100
AcDbEntity
  8
Dimension (ISO)
100
AcDbDimension
280
     0
  2
*D6
 10
91.51190834256206
 20
57.95225788823841
 30
0.0
 11
81.51190834256206
 21
57.95225788823841
 31
0.0
 70
   160
  1
<>
 42
20.0
 73
     0
 74
     0
 75
     0
  3
Default (DIN)
100
AcDbAlignedDimension
 13
71.51190834256206
 23
60.21188989263745
 33
0.0
 14
91.51190834256206
 24
68.50973402392154
 34
0.0
100
AcDbRotatedDimension
1001
ACAD
1000
DSTYLE
1002
{
1070
   172
1070
     0
1070
   289
1070
     1
1070
   271
1070
     0
1070
   272
1070
     2
1070
    48
1040
0.0
1070
    47
1040
0.0
1002
}
  0
DIMENSION
  5
3EF
330
70
100
AcDbEntity
  8
Dimension (ISO)
100
AcDbDimension
280
     0
  2
*D7
 10
111.511908342562
 20
86.00973402391861
 30
0.0
 11
104.011908342562
 21
86.00973402391861
 31
0.0
 70
   160
  1
<>
 42
15.0
 73
     0
 74
     0
 75
     0
  3
Default (DIN)
100
AcDbAlignedDimension
 13
96.51190834256206
 23
81.70973402391858
 33
0.0
 14
111.511908342562
 24
81.00973402391861
 34
0.0
100
AcDbRotatedDimension
1001
ACAD
1000
DSTYLE
1002
{
1070
   172
1070
     0
1070
   289
1070
     1
1070
   271
1070
     0
1070
   272
1070
     2
1070
    48
1040
0.0
1070
    47
1040
0.0
1002
}
  0
DIMENSION
  5
4D1
330
70
100
AcDbEntity
  8
Dimension (ISO)
100
AcDbDimension
280
     0
  2
*D8
 10
118.0138295348871
 20
63.70973402391859
 30
0.0
 11
118.0138295348871
 21
72.70973402391859
 31
0.0
 70
   160
  1
\fAIGDT|b0|i0;\H1.7500;\ln\fISOCPEUR|b0|i0;\H1.7500;<>
 42
18.0
 73
     0
 74
     0
 75
     0
  3
Default (DIN)
100
AcDbAlignedDimension
 13
110.811908342562
 23
81.7097340239186
 33
0.0
 14
110.811908342562
 24
63.7097340239186
 34
0.0
 50
90.0
100
AcDbRotatedDimension
1001
ACAD
1000
DSTYLE
1002
{
1070
   172
1070
     0
1070
   289
1070
     1
1070
   271
1070
     0
1070
   272
1070
     2
1070
    48
1040
0.0
1070
    47
1040
0.0
1002
}
  0
DIMENSION
  5
5AA
330
70
100
AcDbEntity
  8
Dimension (ISO)
100
AcDbDimension
280
     0
  2
*D9
 10
66.51190834256206
 20
87.20973402391857
 30
0.0
 11
71.51190834256206
 21
87.20973402391857
 31
0.0
 70
   160
  1
\fAIGDT|b0|i0;\H1.7500;\ln\fISOCPEUR|b0|i0;\H1.7500;<>\fISOCPEUR|b0|i0;\H1.7500;.1
 42
10.0
 73
     0
 74
     0
 75
     0
  3
Default (DIN)
100
AcDbAlignedDimension
 13
76.51190834256206
 23
82.20973402391857
 33
0.0
 14
66.51190834256206
 24
82.20973402391857
 34
0.0
 50
180.0
100
AcDbRotatedDimension
1001
ACAD
1000
DSTYLE
1002
{
1070
   172
1070
     0
1070
   289
1070
     1
1070
   271
1070
     0
1070
   272
1070
     2
1070
    48
1040
0.0
1070
    47
1040
0.0
1002
}
  0
DIMENSION
  5
68C
330
70
100
AcDbEntity
  8
Dimension (ISO)
100
AcDbDimension
280
     0
  2
*D10
 10
55.94927111903167
 20
67.70973402391956
 30
0.0
 11
55.94927111903166
 21
72.70973402391956
 31
0.0
 70
   160
  1
<>
 42
10.0
 73
     0
 74
     0
 75
     0
  3
Default (DIN)
100
AcDbAlignedDimension
 13
59.51190834256206
 23
77.70973402391956
 33
0.0
 14
59.51190834256206
 24
67.70973402391956
 34
0.0
 50
90.0
100
AcDbRotatedDimension
1001
ACAD
1000
DSTYLE
1002
{
1070
   172
1070
     0
1070
   289
1070
     1
1070
   271
1070
     0
1070
   272
1070
     2
1070
    48
1040
0.0
1070
    47
1040
0.0
1002
}
  0
DIMENSION
  5
76E
330
70
100
AcDbEntity
  8
Dimension (ISO)
100
AcDbDimension
280
     0
  2
*D11
 10
14.5998743327856
 20
50.18358953517599
 30
0.0
 11
14.59987433278559
 21
40.18358953517598
 31
0.0
 70
   160
  1
<>
 42
20.0
 73
     0
 74
     0
 75
     0
  3
Default (DIN)
100
AcDbAlignedDimension
 13
19.59987433278559
 23
30.18358953517598
 33
0.0
 14
19.59987433278559
 24
50.18358953517598
 34
0.0
 50
90.0
100
AcDbRotatedDimension
1001
ACAD
1000
DSTYLE
1002
{
1070
   172
1070
     0
1070
   289
1070
     1
1070
   271
1070
     0
1070
   272
1070
     2
1070
    48
1040
0.0
1070
    47
1040
0.0
1002
}
  0
DIMENSION
  5
844
330
70
100
AcDbEntity
  8
Dimension (ISO)
100
AcDbDimension
280
     0
  2
*D12
 10
39.59987433278559
 20
23.30456715411936
 30
0.0
 11
29.59987433278559
 21
23.30456715411936
 31
0.0
 70
   160
  1
<>
 42
20.0
 73
     0
 74
     0
 75
     0
  3
Default (DIN)
100
AcDbAlignedDimension
 13
19.59987433278559
 23
30.18358953517598
 33
0.0
 14
39.59987433278559
 24
30.18358953517598
 34
0.0
100
AcDbRotatedDimension
1001
ACAD
1000
DSTYLE
1002
{
1070
   172
1070
     0
1070
   289
1070
     1
1070
   271
1070
     0
1070
   272
1070
     2
1070
    48
1040
0.0
1070
    47
1040
0.0
1002
}
  0
ENDSEC
  0
SECTION
  2
OBJECTS
  0
DICTIONARY
  5
C
330
0
100
AcDbDictionary
281
     1
  3
ACAD_CIP_PREVIOUS_PRODUCT_INFO
350
91A
  3
ACAD_COLOR
350
63
  3
ACAD_DETAILVIEWSTYLE
350
6A
  3
ACAD_GROUP
350
D
  3
ACAD_LAYOUT
350
62
  3
ACAD_MATERIAL
350
10
  3
ACAD_MLEADERSTYLE
350
66
  3
ACAD_MLINESTYLE
350
5F
  3
ACAD_PLOTSETTINGS
350
61
  3
ACAD_PLOTSTYLENAME
350
E
  3
ACAD_SCALELIST
350
42
  3
ACAD_SECTIONVIEWSTYLE
350
68
  3
ACAD_TABLESTYLE
350
64
  3
ACAD_VISUALSTYLE
350
29
  3
ACDB_RECOMPOSE_DATA
350
923
  3
AcDbVariableDictionary
350
91B
  0
XRECORD
  5
91A
102
{ACAD_REACTORS
330
C
102
}
330
C
100
AcDbXrecord
280
     1
300
INVPROSA
300
2015
300
INVPROSA_F_S
  0
DICTIONARY
  5
63
102
{ACAD_REACTORS
330
C
102
}
330
C
100
AcDbDictionary
281
     1
  0
DICTIONARY
  5
6A
102
{ACAD_REACTORS
330
C
102
}
330
C
100
AcDbDictionary
281
     1
  3
Imperial24
350
6B
  0
DICTIONARY
  5
D
102
{ACAD_REACTORS
330
C
102
}
330
C
100
AcDbDictionary
281
     1
  0
DICTIONARY
  5
62
102
{ACAD_REACTORS
330
C
102
}
330
C
100
AcDbDictionary
281
     1
  3
Layout1
350
6F
  3
Layout2
350
77
  3
Model
350
73
  0
DICTIONARY
  5
10
102
{ACAD_REACTORS
330
C
102
}
330
C
100
AcDbDictionary
281
     1
  3
ByBlock
350
19
  3
ByLayer
350
11
  3
Global
350
21
  0
DICTIONARY
  5
66
102
{ACAD_REACTORS
330
C
102
}
330
C
100
AcDbDictionary
281
     1
  3
Standard
350
67
  0
DICTIONARY
  5
5F
102
{ACAD_REACTORS
330
C
102
}
330
C
100
AcDbDictionary
281
     1
  3
Standard
350
60
  0
DICTIONARY
  5
61
102
{ACAD_REACTORS
330
C
102
}
330
C
100
AcDbDictionary
281
     1
  0
ACDBDICTIONARYWDFLT
  5
E
102
{ACAD_REACTORS
330
C
102
}
330
C
100
AcDbDictionary
281
     1
  3
Normal
350
F
100
AcDbDictionaryWithDefault
340
F
  0
DICTIONARY
  5
42
102
{ACAD_REACTORS
330
C
102
}
330
C
100
AcDbDictionary
281
     1
  3
A0
350
43
  3
A1
350
44
  3
A2
350
45
  3
A3
350
46
  3
A4
350
47
  3
A5
350
48
  3
A6
350
49
  3
A7
350
4A
  3
A8
350
4B
  3
A9
350
4C
  3
B0
350
4D
  3
B1
350
4E
  3
B2
350
4F
  3
B3
350
50
  3
B4
350
51
  3
B5
350
52
  3
B6
350
53
  0
DICTIONARY
  5
68
102
{ACAD_REACTORS
330
C
102
}
330
C
100
AcDbDictionary
281
     1
  3
Imperial24
350
69
  0
DICTIONARY
  5
64
102
{ACAD_REACTORS
330
C
102
}
330
C
100
AcDbDictionary
281
     1
  3
Standard
350
65
  0
DICTIONARY
  5
29
102
{ACAD_REACTORS
330
C
102
}
330
C
100
AcDbDictionary
281
     1
  3
2dWireframe
350
2F
  3
Basic
350
2E
  3
Brighten
350
35
  3
ColorChange
350
39
  3
Conceptual
350
32
  3
Dim
350
34
  3
EdgeColorOff
350
41
  3
Facepattern
350
38
  3
Flat
350
2A
  3
FlatWithEdges
350
2B
  3
Gouraud
350
2C
  3
GouraudWithEdges
350
2D
  3
Hidden
350
31
  3
JitterOff
350
3F
  3
Linepattern
350
37
  3
OverhangOff
350
40
  3
Realistic
350
33
  3
Shaded
350
3E
  3
Shaded with edges
350
3D
  3
Shades of Gray
350
3A
  3
Sketchy
350
3B
  3
Thicken
350
36
  3
Wireframe
350
30
  3
X-Ray
350
3C
  0
XRECORD
  5
923
102
{ACAD_REACTORS
330
C
102
}
330
C
100
AcDbXrecord
280
     1
 90
        1
330
65
  0
DICTIONARY
  5
91B
102
{ACAD_REACTORS
330
C
102
}
330
C
100
AcDbDictionary
281
     1
  3
CANNOSCALE
350
920
  3
CMLEADERSTYLE
350
91D
  3
CTABLESTYLE
350
91C
  3
CVIEWDETAILSTYLE
350
91E
  3
CVIEWSECTIONSTYLE
350
91F
  0
ACDBDETAILVIEWSTYLE
  5
6B
102
{ACAD_XDICTIONARY
360
958
102
}
102
{ACAD_REACTORS
330
6A
102
}
330
6A
100
AcDbModelDocViewStyle
 70
     0
  3
Imperial24
290
     0
100
AcDbDetailViewStyle
 70
     0
 71
     0
 90
        3
 71
     1
340
55
 62
   256
 40
0.24
340
0
 62
   256
 40
0.24
300

 40
0.36
280
     3
 71
     2
340
5D
 90
       25
 62
   256
 71
     3
340
55
 62
   256
 40
0.24
 90
        1
 40
0.75
 90
        1
300
%<\AcVar ViewType \f "%tc1">% %<\AcVar ViewDetailId>%\PSCALE %<\AcVar ViewScale \f "%sn">%
 71
     4
340
5D
 90
       25
 62
   256
340
5D
 90
       25
 62
   256
280
     0
  0
LAYOUT
  5
6F
102
{ACAD_REACTORS
330
62
102
}
330
62
100
AcDbPlotSettings
  1

  2

  4

  6

 40
0.0
 41
0.0
 42
0.0
 43
0.0
 44
0.0
 45
0.0
 46
0.0
 47
0.0
 48
0.0
 49
0.0
140
0.0
141
0.0
142
1.0
143
1.0
 70
   688
 72
     0
 73
     0
 74
     5
  7

 75
    16
147
1.0
 76
     0
 77
     2
 78
   300
148
0.0
149
0.0
100
AcDbLayout
  1
Layout1
 70
     1
 71
     1
 10
0.0
 20
0.0
 11
12.0
 21
9.0
 12
0.0
 22
0.0
 32
0.0
 14
0.0
 24
0.0
 34
0.0
 15
0.0
 25
0.0
 35
0.0
146
0.0
 13
0.0
 23
0.0
 33
0.0
 16
1.0
 26
0.0
 36
0.0
 17
0.0
 27
1.0
 37
0.0
 76
     0
330
6C
  0
LAYOUT
  5
77
102
{ACAD_REACTORS
330
62
102
}
330
62
100
AcDbPlotSettings
  1

  2

  4

  6

 40
0.0
 41
0.0
 42
0.0
 43
0.0
 44
0.0
 45
0.0
 46
0.0
 47
0.0
 48
0.0
 49
0.0
140
0.0
141
0.0
142
1.0
143
1.0
 70
   688
 72
     0
 73
     0
 74
     5
  7

 75
    16
147
1.0
 76
     0
 77
     2
 78
   300
148
0.0
149
0.0
100
AcDbLayout
  1
Layout2
 70
     1
 71
     2
 10
0.0
 20
0.0
 11
12.0
 21
9.0
 12
0.0
 22
0.0
 32
0.0
 14
0.0
 24
0.0
 34
0.0
 15
0.0
 25
0.0
 35
0.0
146
0.0
 13
0.0
 23
0.0
 33
0.0
 16
1.0
 26
0.0
 36
0.0
 17
0.0
 27
1.0
 37
0.0
 76
     0
330
74
  0
LAYOUT
  5
73
102
{ACAD_REACTORS
330
62
102
}
330
62
100
AcDbPlotSettings
  1

  2

  4

  6

 40
0.0
 41
0.0
 42
0.0
 43
0.0
 44
0.0
 45
0.0
 46
0.0
 47
0.0
 48
0.0
 49
0.0
140
0.0
141
0.0
142
1.0
143
1.0
 70
  1712
 72
     0
 73
     0
 74
     0
  7

 75
     0
147
1.0
 76
     0
 77
     2
 78
   300
148
0.0
149
0.0
100
AcDbLayout
  1
Model
 70
     1
 71
     0
 10
0.0
 20
0.0
 11
12.0
 21
9.0
 12
0.0
 22
0.0
 32
0.0
 14
0.0
 24
0.0
 34
0.0
 15
0.0
 25
0.0
 35
0.0
146
0.0
 13
0.0
 23
0.0
 33
0.0
 16
1.0
 26
0.0
 36
0.0
 17
0.0
 27
1.0
 37
0.0
 76
     0
330
70
  0
MATERIAL
  5
19
102
{ACAD_XDICTIONARY
360
1A
102
}
102
{ACAD_REACTORS
330
10
102
}
330
10
100
AcDbMaterial
  1
ByBlock
 72
     0
 43
0.0208333333333333
 43
0.0
 43
0.0
 43
0.0
 43
0.0
 43
0.0208333333333333
 43
0.0
 43
0.0
 43
0.0
 43
0.0
 43
1.0
 43
0.0
 43
0.0
 43
0.0
 43
0.0
 43
1.0
 77
     0
 47
0.0208333333333333
 47
0.0
 47
0.0
 47
0.0
 47
0.0
 47
0.0208333333333333
 47
0.0
 47
0.0
 47
0.0
 47
0.0
 47
1.0
 47
0.0
 47
0.0
 47
0.0
 47
0.0
 47
1.0
171
     0
 49
0.0208333333333333
 49
0.0
 49
0.0
 49
0.0
 49
0.0
 49
0.0208333333333333
 49
0.0
 49
0.0
 49
0.0
 49
0.0
 49
1.0
 49
0.0
 49
0.0
 49
0.0
 49
0.0
 49
1.0
175
     0
142
0.0208333333333333
142
0.0
142
0.0
142
0.0
142
0.0
142
0.0208333333333333
142
0.0
142
0.0
142
0.0
142
0.0
142
1.0
142
0.0
142
0.0
142
0.0
142
0.0
142
1.0
179
     0
144
0.0208333333333333
144
0.0
144
0.0
144
0.0
144
0.0
144
0.0208333333333333
144
0.0
144
0.0
144
0.0
144
0.0
144
1.0
144
0.0
144
0.0
144
0.0
144
0.0
144
1.0
147
0.0208333333333333
147
0.0
147
0.0
147
0.0
147
0.0
147
0.0208333333333333
147
0.0
147
0.0
147
0.0
147
0.0
147
1.0
147
0.0
147
0.0
147
0.0
147
0.0
147
1.0
  0
MATERIAL
  5
11
102
{ACAD_XDICTIONARY
360
12
102
}
102
{ACAD_REACTORS
330
10
102
}
330
10
100
AcDbMaterial
  1
ByLayer
 72
     0
 43
0.0208333333333333
 43
0.0
 43
0.0
 43
0.0
 43
0.0
 43
0.0208333333333333
 43
0.0
 43
0.0
 43
0.0
 43
0.0
 43
1.0
 43
0.0
 43
0.0
 43
0.0
 43
0.0
 43
1.0
 77
     0
 47
0.0208333333333333
 47
0.0
 47
0.0
 47
0.0
 47
0.0
 47
0.0208333333333333
 47
0.0
 47
0.0
 47
0.0
 47
0.0
 47
1.0
 47
0.0
 47
0.0
 47
0.0
 47
0.0
 47
1.0
171
     0
 49
0.0208333333333333
 49
0.0
 49
0.0
 49
0.0
 49
0.0
 49
0.0208333333333333
 49
0.0
 49
0.0
 49
0.0
 49
0.0
 49
1.0
 49
0.0
 49
0.0
 49
0.0
 49
0.0
 49
1.0
175
     0
142
0.0208333333333333
142
0.0
142
0.0
142
0.0
142
0.0
142
0.0208333333333333
142
0.0
142
0.0
142
0.0
142
0.0
142
1.0
142
0.0
142
0.0
142
0.0
142
0.0
142
1.0
179
     0
144
0.0208333333333333
144
0.0
144
0.0
144
0.0
144
0.0
144
0.0208333333333333
144
0.0
144
0.0
144
0.0
144
0.0
144
1.0
144
0.0
144
0.0
144
0.0
144
0.0
144
1.0
147
0.0208333333333333
147
0.0
147
0.0
147
0.0
147
0.0
147
0.0208333333333333
147
0.0
147
0.0
147
0.0
147
0.0
147
1.0
147
0.0
147
0.0
147
0.0
147
0.0
147
1.0
  0
MATERIAL
  5
21
102
{ACAD_XDICTIONARY
360
22
102
}
102
{ACAD_REACTORS
330
10
102
}
330
10
100
AcDbMaterial
  1
Global
 72
     0
 43
0.0208333333333333
 43
0.0
 43
0.0
 43
0.0
 43
0.0
 43
0.0208333333333333
 43
0.0
 43
0.0
 43
0.0
 43
0.0
 43
1.0
 43
0.0
 43
0.0
 43
0.0
 43
0.0
 43
1.0
 77
     0
 47
0.0208333333333333
 47
0.0
 47
0.0
 47
0.0
 47
0.0
 47
0.0208333333333333
 47
0.0
 47
0.0
 47
0.0
 47
0.0
 47
1.0
 47
0.0
 47
0.0
 47
0.0
 47
0.0
 47
1.0
171
     0
 49
0.0208333333333333
 49
0.0
 49
0.0
 49
0.0
 49
0.0
 49
0.0208333333333333
 49
0.0
 49
0.0
 49
0.0
 49
0.0
 49
1.0
 49
0.0
 49
0.0
 49
0.0
 49
0.0
 49
1.0
175
     0
142
0.0208333333333333
142
0.0
142
0.0
142
0.0
142
0.0
142
0.0208333333333333
142
0.0
142
0.0
142
0.0
142
0.0
142
1.0
142
0.0
142
0.0
142
0.0
142
0.0
142
1.0
179
     0
144
0.0208333333333333
144
0.0
144
0.0
144
0.0
144
0.0
144
0.0208333333333333
144
0.0
144
0.0
144
0.0
144
0.0
144
1.0
144
0.0
144
0.0
144
0.0
144
0.0
144
1.0
147
0.0208333333333333
147
0.0
147
0.0
147
0.0
147
0.0
147
0.0208333333333333
147
0.0
147
0.0
147
0.0
147
0.0
147
1.0
147
0.0
147
0.0
147
0.0
147
0.0
147
1.0
  0
MLEADERSTYLE
  5
67
102
{ACAD_XDICTIONARY
360
954
102
}
102
{ACAD_REACTORS
330
66
102
}
330
66
100
AcDbMLeaderStyle
179
     2
170
     2
171
     1
172
     0
 90
        2
 40
0.0
 41
0.0
173
     1
 91
-1056964608
340
5B
 92
       -2
290
     1
 42
0.09
291
     1
 43
0.36
  3
Standard
 44
0.18
300

342
55
174
     1
178
     6
175
     1
176
     0
 93
-1056964608
 45
0.18
292
     0
297
     0
 46
0.18
 94
-1056964608
 47
1.0
 49
1.0
140
1.0
293
     1
141
0.0
294
     1
177
     0
142
1.0
295
     0
296
     0
143
0.125
271
     0
272
     9
273
     9
  0
MLINESTYLE
  5
60
102
{ACAD_REACTORS
330
5F
102
}
330
5F
100
AcDbMlineStyle
  2
STANDARD
 70
     0
  3

 62
   256
 51
90.0
 52
90.0
 71
     2
 49
0.5
 62
   256
  6
BYLAYER
 49
-0.5
 62
   256
  6
BYLAYER
  0
ACDBPLACEHOLDER
  5
F
102
{ACAD_REACTORS
330
E
102
}
330
E
  0
SCALE
  5
43
102
{ACAD_REACTORS
330
42
102
}
330
42
100
AcDbScale
 70
     0
300
1:1
140
1.0
141
1.0
290
     1
  0
SCALE
  5
44
102
{ACAD_REACTORS
330
42
102
}
330
42
100
AcDbScale
 70
     0
300
1/128" = 1'-0"
140
0.0078125
141
12.0
290
     0
  0
SCALE
  5
45
102
{ACAD_REACTORS
330
42
102
}
330
42
100
AcDbScale
 70
     0
300
1/64" = 1'-0"
140
0.015625
141
12.0
290
     0
  0
SCALE
  5
46
102
{ACAD_REACTORS
330
42
102
}
330
42
100
AcDbScale
 70
     0
300
1/32" = 1'-0"
140
0.03125
141
12.0
290
     0
  0
SCALE
  5
47
102
{ACAD_REACTORS
330
42
102
}
330
42
100
AcDbScale
 70
     0
300
1/16" = 1'-0"
140
0.0625
141
12.0
290
     0
  0
SCALE
  5
48
102
{ACAD_REACTORS
330
42
102
}
330
42
100
AcDbScale
 70
     0
300
3/32" = 1'-0"
140
0.09375
141
12.0
290
     0
  0
SCALE
  5
49
102
{ACAD_REACTORS
330
42
102
}
330
42
100
AcDbScale
 70
     0
300
1/8" = 1'-0"
140
0.125
141
12.0
290
     0
  0
SCALE
  5
4A
102
{ACAD_REACTORS
330
42
102
}
330
42
100
AcDbScale
 70
     0
300
3/16" = 1'-0"
140
0.1875
141
12.0
290
     0
  0
SCALE
  5
4B
102
{ACAD_REACTORS
330
42
102
}
330
42
100
AcDbScale
 70
     0
300
1/4" = 1'-0"
140
0.25
141
12.0
290
     0
  0
SCALE
  5
4C
102
{ACAD_REACTORS
330
42
102
}
330
42
100
AcDbScale
 70
     0
300
3/8" = 1'-0"
140
0.375
141
12.0
290
     0
  0
SCALE
  5
4D
102
{ACAD_REACTORS
330
42
102
}
330
42
100
AcDbScale
 70
     0
300
1/2" = 1'-0"
140
0.5
141
12.0
290
     0
  0
SCALE
  5
4E
102
{ACAD_REACTORS
330
42
102
}
330
42
100
AcDbScale
 70
     0
300
3/4" = 1'-0"
140
0.75
141
12.0
290
     0
  0
SCALE
  5
4F
102
{ACAD_REACTORS
330
42
102
}
330
42
100
AcDbScale
 70
     0
300
1" = 1'-0"
140
1.0
141
12.0
290
     0
  0
SCALE
  5
50
102
{ACAD_REACTORS
330
42
102
}
330
42
100
AcDbScale
 70
     0
300
1-1/2" = 1'-0"
140
1.5
141
12.0
290
     0
  0
SCALE
  5
51
102
{ACAD_REACTORS
330
42
102
}
330
42
100
AcDbScale
 70
     0
300
3" = 1'-0"
140
3.0
141
12.0
290
     0
  0
SCALE
  5
52
102
{ACAD_REACTORS
330
42
102
}
330
42
100
AcDbScale
 70
     0
300
6" = 1'-0"
140
6.0
141
12.0
290
     0
  0
SCALE
  5
53
102
{ACAD_REACTORS
330
42
102
}
330
42
100
AcDbScale
 70
     0
300
1'-0" = 1'-0"
140
12.0
141
12.0
290
     0
  0
ACDBSECTIONVIEWSTYLE
  5
69
102
{ACAD_XDICTIONARY
360
956
102
}
102
{ACAD_REACTORS
330
68
102
}
330
68
100
AcDbModelDocViewStyle
 70
     0
  3
Imperial24
290
     0
100
AcDbSectionViewStyle
 70
     0
 71
     0
 90
       78
 71
     1
340
55
 62
   256
 40
0.24
340
0
340
0
 62
   256
 40
0.24
300
I, O, Q, S, X, Z
 40
0.48
 90
        3
 40
0.18
 90
        1
 71
     2
340
5D
 90
       25
 62
   256
340
5D
 90
       50
 62
   256
 40
0.24
 40
0.0
 40
0.24
 71
     3
340
55
 62
   256
 40
0.24
 90
        1
 40
0.75
 90
        1
300
%<\AcVar ViewType \f "%tc1">% %<\AcVar ViewSectionStartId>%-%<\AcVar ViewSectionEndId>%\PSCALE %<\AcVar ViewScale \f "%sn">%
 71
     4
 62
   256
 62
   257
300
ANSI31
 40
1.0
 90
        0
290
     0
290
     0
 90
        6
 40
0.0
 40
1.570796326794896
 40
0.2617993877991494
 40
1.308996938995747
 40
-0.2617993877991494
 40
1.832595714594046
  0
TABLESTYLE
  5
65
102
{ACAD_XDICTIONARY
360
921
102
}
102
{ACAD_REACTORS
330
64
102
}
330
64
100
AcDbTableStyle
280
     0
  3
Standard
 70
     0
 71
     0
 40
0.06
 41
0.06
280
     0
281
     0
  7
Standard
140
0.18
170
     2
 62
     0
 63
     7
283
     0
 90
      512
 91
        0
  1

274
    -2
284
     1
 64
     0
275
    -2
285
     1
 65
     0
276
    -2
286
     1
 66
     0
277
    -2
287
     1
 67
     0
278
    -2
288
     1
 68
     0
279
    -2
289
     1
 69
     0
  7
Standard
140
0.25
170
     5
 62
     0
 63
     7
283
     0
 90
      512
 91
        0
  1

274
    -2
284
     1
 64
     0
275
    -2
285
     1
 65
     0
276
    -2
286
     1
 66
     0
277
    -2
287
     1
 67
     0
278
    -2
288
     1
 68
     0
279
    -2
289
     1
 69
     0
  7
Standard
140
0.18
170
     5
 62
     0
 63
     7
283
     0
 90
      512
 91
        0
  1

274
    -2
284
     1
 64
     0
275
    -2
285
     1
 65
     0
276
    -2
286
     1
 66
     0
277
    -2
287
     1
 67
     0
278
    -2
288
     1
 68
     0
279
    -2
289
     1
 69
     0
  0
VISUALSTYLE
  5
2F
102
{ACAD_XDICTIONARY
360
92E
102
}
102
{ACAD_REACTORS
330
29
102
}
330
29
100
AcDbVisualStyle
  2
2dWireframe
 70
     4
177
     2
291
     0
 71
     0
176
     1
 72
     2
176
     1
 73
     0
176
     1
 90
        0
176
     1
 40
0.6
176
     1
 41
30.0
176
     1
 63
     7
421
 16777215
176
     1
 74
     1
176
     1
 91
        4
176
     1
 64
     7
176
     1
 65
   257
176
     1
 75
     1
176
     1
175
     1
176
     1
 42
1.0
176
     1
 92
        0
176
     1
 66
   257
176
     1
 43
1.0
176
     1
 76
     1
176
     1
 77
     6
176
     1
 78
     2
176
     1
 67
     7
176
     1
 79
     5
176
     1
170
     0
176
     1
171
     0
176
     1
290
     0
176
     1
 93
        1
176
     1
 44
0.0
176
     1
173
     0
176
     1
1001
ACAD
1000
AcDbSavedByObjectVersion
1070
     0
  0
VISUALSTYLE
  5
2E
102
{ACAD_XDICTIONARY
360
92C
102
}
102
{ACAD_REACTORS
330
29
102
}
330
29
100
AcDbVisualStyle
  2
Basic
 70
     7
177
     2
291
     1
 71
     1
176
     1
 72
     0
176
     1
 73
     1
176
     1
 90
        0
176
     1
 40
0.6
176
     1
 41
30.0
176
     1
 63
     7
421
 16777215
176
     1
 74
     0
176
     1
 91
        4
176
     1
 64
     7
176
     1
 65
   257
176
     1
 75
     1
176
     1
175
     1
176
     1
 42
1.0
176
     1
 92
        8
176
     1
 66
     7
176
     1
 43
1.0
176
     1
 76
     1
176
     1
 77
     6
176
     1
 78
     2
176
     1
 67
     7
176
     1
 79
     5
176
     1
170
     0
176
     1
171
     0
176
     1
290
     0
176
     1
 93
        1
176
     1
 44
0.0
176
     1
173
     0
176
     1
1001
ACAD
1000
AcDbSavedByObjectVersion
1070
     0
  0
VISUALSTYLE
  5
35
102
{ACAD_XDICTIONARY
360
93A
102
}
102
{ACAD_REACTORS
330
29
102
}
330
29
100
AcDbVisualStyle
  2
Brighten
 70
    12
177
     2
291
     1
 71
     2
176
     1
 72
     2
176
     1
 73
     0
176
     1
 90
        0
176
     1
 40
0.6
176
     1
 41
30.0
176
     1
 63
     7
421
 16777215
176
     1
 74
     1
176
     1
 91
        4
176
     1
 64
     7
176
     1
 65
   257
176
     1
 75
     1
176
     1
175
     1
176
     1
 42
1.0
176
     1
 92
        8
176
     1
 66
     7
176
     1
 43
1.0
176
     1
 76
     1
176
     1
 77
     6
176
     1
 78
     2
176
     1
 67
     7
176
     1
 79
     5
176
     1
170
     0
176
     1
171
     0
176
     1
290
     0
176
     1
 93
        1
176
     1
 44
50.0
176
     1
173
     0
176
     1
1001
ACAD
1000
AcDbSavedByObjectVersion
1070
     0
  0
VISUALSTYLE
  5
39
102
{ACAD_XDICTIONARY
360
942
102
}
102
{ACAD_REACTORS
330
29
102
}
330
29
100
AcDbVisualStyle
  2
ColorChange
 70
    16
177
     2
291
     1
 71
     2
176
     1
 72
     2
176
     1
 73
     3
176
     1
 90
        0
176
     1
 40
0.6
176
     1
 41
30.0
176
     1
 63
     8
421
  8421504
176
     1
 74
     1
176
     1
 91
        4
176
     1
 64
     7
176
     1
 65
   257
176
     1
 75
     1
176
     1
175
     1
176
     1
 42
1.0
176
     1
 92
        8
176
     1
 66
     8
424
  8421504
176
     1
 43
1.0
176
     1
 76
     1
176
     1
 77
     6
176
     1
 78
     2
176
     1
 67
     7
176
     1
 79
     5
176
     1
170
     0
176
     1
171
     0
176
     1
290
     0
176
     1
 93
        1
176
     1
 44
0.0
176
     1
173
     0
176
     1
1001
ACAD
1000
AcDbSavedByObjectVersion
1070
     0
  0
VISUALSTYLE
  5
32
102
{ACAD_XDICTIONARY
360
934
102
}
102
{ACAD_REACTORS
330
29
102
}
330
29
100
AcDbVisualStyle
  2
Conceptual
 70
     9
177
     2
291
     0
 71
     3
176
     1
 72
     2
176
     1
 73
     0
176
     1
 90
        0
176
     1
 40
0.6
176
     1
 41
30.0
176
     1
 63
     7
421
 16777215
176
     1
 74
     2
176
     1
 91
        2
176
     1
 64
     7
176
     1
 65
   257
176
     1
 75
     1
176
     1
175
     1
176
     1
 42
179.0
176
     1
 92
        8
176
     1
 66
     7
176
     1
 43
1.0
176
     1
 76
     1
176
     1
 77
     6
176
     1
 78
     2
176
     1
 67
     7
176
     1
 79
     3
176
     1
170
     0
176
     1
171
     0
176
     1
290
     0
176
     1
 93
        1
176
     1
 44
0.0
176
     1
173
     0
176
     1
1001
ACAD
1000
AcDbSavedByObjectVersion
1070
     0
  0
VISUALSTYLE
  5
34
102
{ACAD_XDICTIONARY
360
938
102
}
102
{ACAD_REACTORS
330
29
102
}
330
29
100
AcDbVisualStyle
  2
Dim
 70
    11
177
     2
291
     1
 71
     2
176
     1
 72
     2
176
     1
 73
     0
176
     1
 90
        0
176
     1
 40
0.6
176
     1
 41
30.0
176
     1
 63
     7
421
 16777215
176
     1
 74
     1
176
     1
 91
        4
176
     1
 64
     7
176
     1
 65
   257
176
     1
 75
     1
176
     1
175
     1
176
     1
 42
1.0
176
     1
 92
        8
176
     1
 66
     7
176
     1
 43
1.0
176
     1
 76
     1
176
     1
 77
     6
176
     1
 78
     2
176
     1
 67
     7
176
     1
 79
     5
176
     1
170
     0
176
     1
171
     0
176
     1
290
     0
176
     1
 93
        1
176
     1
 44
-50.0
176
     1
173
     0
176
     1
1001
ACAD
1000
AcDbSavedByObjectVersion
1070
     0
  0
VISUALSTYLE
  5
41
102
{ACAD_XDICTIONARY
360
952
102
}
102
{ACAD_REACTORS
330
29
102
}
330
29
100
AcDbVisualStyle
  2
EdgeColorOff
 70
    22
177
     2
291
     1
 71
     2
176
     0
 72
     2
176
     0
 73
     0
176
     0
 90
        0
176
     0
 40
0.6
176
     0
 41
30.0
176
     0
 63
     7
421
 16777215
176
     0
 74
     1
176
     0
 91
        4
176
     0
 64
     7
176
     0
 65
   257
176
     0
 75
     1
176
     0
175
     1
176
     0
 42
1.0
176
     0
 92
        8
176
     2
 66
     7
176
     0
 43
1.0
176
     0
 76
     1
176
     0
 77
     6
176
     0
 78
     2
176
     0
 67
     7
176
     0
 79
     5
176
     0
170
     0
176
     0
171
     0
176
     0
290
     0
176
     0
 93
        1
176
     0
 44
0.0
176
     0
173
     0
176
     0
1001
ACAD
1000
AcDbSavedByObjectVersion
1070
     0
  0
VISUALSTYLE
  5
38
102
{ACAD_XDICTIONARY
360
940
102
}
102
{ACAD_REACTORS
330
29
102
}
330
29
100
AcDbVisualStyle
  2
Facepattern
 70
    15
177
     2
291
     1
 71
     2
176
     1
 72
     2
176
     1
 73
     0
176
     1
 90
        0
176
     1
 40
0.6
176
     1
 41
30.0
176
     1
 63
     7
421
 16777215
176
     1
 74
     1
176
     1
 91
        4
176
     1
 64
     7
176
     1
 65
   257
176
     1
 75
     1
176
     1
175
     1
176
     1
 42
1.0
176
     1
 92
        8
176
     1
 66
     7
176
     1
 43
1.0
176
     1
 76
     1
176
     1
 77
     6
176
     1
 78
     2
176
     1
 67
     7
176
     1
 79
     5
176
     1
170
     0
176
     1
171
     0
176
     1
290
     0
176
     1
 93
        1
176
     1
 44
0.0
176
     1
173
     0
176
     1
1001
ACAD
1000
AcDbSavedByObjectVersion
1070
     0
  0
VISUALSTYLE
  5
2A
102
{ACAD_XDICTIONARY
360
924
102
}
102
{ACAD_REACTORS
330
29
102
}
330
29
100
AcDbVisualStyle
  2
Flat
 70
     0
177
     2
291
     1
 71
     2
176
     1
 72
     1
176
     1
 73
     1
176
     1
 90
        2
176
     1
 40
0.6
176
     1
 41
30.0
176
     1
 63
     7
421
 16777215
176
     1
 74
     0
176
     1
 91
        0
176
     1
 64
     7
176
     1
 65
   257
176
     1
 75
     1
176
     1
175
     1
176
     1
 42
1.0
176
     1
 92
        8
176
     1
 66
     7
176
     1
 43
1.0
176
     1
 76
     1
176
     1
 77
     6
176
     1
 78
     2
176
     1
 67
     7
176
     1
 79
     5
176
     1
170
     0
176
     1
171
     0
176
     1
290
     0
176
     1
 93
       13
176
     1
 44
0.0
176
     1
173
     0
176
     1
1001
ACAD
1000
AcDbSavedByObjectVersion
1070
     0
  0
VISUALSTYLE
  5
2B
102
{ACAD_XDICTIONARY
360
926
102
}
102
{ACAD_REACTORS
330
29
102
}
330
29
100
AcDbVisualStyle
  2
FlatWithEdges
 70
     1
177
     2
291
     1
 71
     2
176
     1
 72
     1
176
     1
 73
     1
176
     1
 90
        2
176
     1
 40
0.6
176
     1
 41
30.0
176
     1
 63
     7
421
 16777215
176
     1
 74
     1
176
     1
 91
        0
176
     1
 64
     7
176
     1
 65
   257
176
     1
 75
     1
176
     1
175
     1
176
     1
 42
1.0
176
     1
 92
        0
176
     1
 66
   257
176
     1
 43
1.0
176
     1
 76
     1
176
     1
 77
     6
176
     1
 78
     2
176
     1
 67
     7
176
     1
 79
     5
176
     1
170
     0
176
     1
171
     0
176
     1
290
     0
176
     1
 93
       13
176
     1
 44
0.0
176
     1
173
     0
176
     1
1001
ACAD
1000
AcDbSavedByObjectVersion
1070
     0
  0
VISUALSTYLE
  5
2C
102
{ACAD_XDICTIONARY
360
928
102
}
102
{ACAD_REACTORS
330
29
102
}
330
29
100
AcDbVisualStyle
  2
Gouraud
 70
     2
177
     2
291
     1
 71
     2
176
     1
 72
     2
176
     1
 73
     1
176
     1
 90
        2
176
     1
 40
0.6
176
     1
 41
30.0
176
     1
 63
     7
421
 16777215
176
     1
 74
     0
176
     1
 91
        0
176
     1
 64
     7
176
     1
 65
   257
176
     1
 75
     1
176
     1
175
     1
176
     1
 42
1.0
176
     1
 92
        0
176
     1
 66
     7
176
     1
 43
1.0
176
     1
 76
     1
176
     1
 77
     6
176
     1
 78
     2
176
     1
 67
     7
176
     1
 79
     5
176
     1
170
     0
176
     1
171
     0
176
     1
290
     0
176
     1
 93
       13
176
     1
 44
0.0
176
     1
173
     0
176
     1
1001
ACAD
1000
AcDbSavedByObjectVersion
1070
     0
  0
VISUALSTYLE
  5
2D
102
{ACAD_XDICTIONARY
360
92A
102
}
102
{ACAD_REACTORS
330
29
102
}
330
29
100
AcDbVisualStyle
  2
GouraudWithEdges
 70
     3
177
     2
291
     1
 71
     2
176
     1
 72
     2
176
     1
 73
     1
176
     1
 90
        2
176
     1
 40
0.6
176
     1
 41
30.0
176
     1
 63
     7
421
 16777215
176
     1
 74
     1
176
     1
 91
        0
176
     1
 64
     7
176
     1
 65
   257
176
     1
 75
     1
176
     1
175
     1
176
     1
 42
1.0
176
     1
 92
        0
176
     1
 66
   257
176
     1
 43
1.0
176
     1
 76
     1
176
     1
 77
     6
176
     1
 78
     2
176
     1
 67
     7
176
     1
 79
     5
176
     1
170
     0
176
     1
171
     0
176
     1
290
     0
176
     1
 93
       13
176
     1
 44
0.0
176
     1
173
     0
176
     1
1001
ACAD
1000
AcDbSavedByObjectVersion
1070
     0
  0
VISUALSTYLE
  5
31
102
{ACAD_XDICTIONARY
360
932
102
}
102
{ACAD_REACTORS
330
29
102
}
330
29
100
AcDbVisualStyle
  2
Hidden
 70
     6
177
     2
291
     0
 71
     1
176
     1
 72
     2
176
     1
 73
     2
176
     1
 90
        0
176
     1
 40
0.6
176
     1
 41
30.0
176
     1
 63
     7
421
 16777215
176
     1
 74
     2
176
     1
 91
        2
176
     1
 64
     7
176
     1
 65
   257
176
     1
 75
     2
176
     1
175
     1
176
     1
 42
40.0
176
     1
 92
        0
176
     1
 66
   257
176
     1
 43
1.0
176
     1
 76
     1
176
     1
 77
     6
176
     1
 78
     2
176
     1
 67
     7
176
     1
 79
     3
176
     1
170
     0
176
     1
171
     0
176
     1
290
     0
176
     1
 93
        1
176
     1
 44
0.0
176
     1
173
     0
176
     1
1001
ACAD
1000
AcDbSavedByObjectVersion
1070
     0
  0
VISUALSTYLE
  5
3F
102
{ACAD_XDICTIONARY
360
94E
102
}
102
{ACAD_REACTORS
330
29
102
}
330
29
100
AcDbVisualStyle
  2
JitterOff
 70
    20
177
     2
291
     1
 71
     2
176
     0
 72
     2
176
     0
 73
     0
176
     0
 90
        0
176
     0
 40
0.6
176
     0
 41
30.0
176
     0
 63
     7
421
 16777215
176
     0
 74
     1
176
     0
 91
        4
176
     0
 64
     7
176
     0
 65
   257
176
     0
 75
     1
176
     0
175
     1
176
     0
 42
1.0
176
     0
 92
       10
176
     2
 66
     7
176
     0
 43
1.0
176
     0
 76
     1
176
     0
 77
     6
176
     0
 78
     2
176
     0
 67
     7
176
     0
 79
     5
176
     0
170
     0
176
     0
171
     0
176
     0
290
     0
176
     0
 93
        1
176
     0
 44
0.0
176
     0
173
     0
176
     0
1001
ACAD
1000
AcDbSavedByObjectVersion
1070
     0
  0
VISUALSTYLE
  5
37
102
{ACAD_XDICTIONARY
360
93E
102
}
102
{ACAD_REACTORS
330
29
102
}
330
29
100
AcDbVisualStyle
  2
Linepattern
 70
    14
177
     2
291
     1
 71
     2
176
     1
 72
     2
176
     1
 73
     0
176
     1
 90
        0
176
     1
 40
0.6
176
     1
 41
30.0
176
     1
 63
     7
421
 16777215
176
     1
 74
     1
176
     1
 91
        4
176
     1
 64
     7
176
     1
 65
   257
176
     1
 75
     7
176
     1
175
     7
176
     1
 42
1.0
176
     1
 92
        8
176
     1
 66
     7
176
     1
 43
1.0
176
     1
 76
     1
176
     1
 77
     6
176
     1
 78
     2
176
     1
 67
     7
176
     1
 79
     5
176
     1
170
     0
176
     1
171
     0
176
     1
290
     0
176
     1
 93
        1
176
     1
 44
0.0
176
     1
173
     0
176
     1
1001
ACAD
1000
AcDbSavedByObjectVersion
1070
     0
  0
VISUALSTYLE
  5
40
102
{ACAD_XDICTIONARY
360
950
102
}
102
{ACAD_REACTORS
330
29
102
}
330
29
100
AcDbVisualStyle
  2
OverhangOff
 70
    21
177
     2
291
     1
 71
     2
176
     0
 72
     2
176
     0
 73
     0
176
     0
 90
        0
176
     0
 40
0.6
176
     0
 41
30.0
176
     0
 63
     7
421
 16777215
176
     0
 74
     1
176
     0
 91
        4
176
     0
 64
     7
176
     0
 65
   257
176
     0
 75
     1
176
     0
175
     1
176
     0
 42
1.0
176
     0
 92
        9
176
     2
 66
     7
176
     0
 43
1.0
176
     0
 76
     1
176
     0
 77
     6
176
     0
 78
     2
176
     0
 67
     7
176
     0
 79
     5
176
     0
170
     0
176
     0
171
     0
176
     0
290
     0
176
     0
 93
        1
176
     0
 44
0.0
176
     0
173
     0
176
     0
1001
ACAD
1000
AcDbSavedByObjectVersion
1070
     0
  0
VISUALSTYLE
  5
33
102
{ACAD_XDICTIONARY
360
936
102
}
102
{ACAD_REACTORS
330
29
102
}
330
29
100
AcDbVisualStyle
  2
Realistic
 70
     8
177
     2
291
     0
 71
     2
176
     1
 72
     3
176
     1
 73
     0
176
     1
 90
        2
176
     1
 40
0.6
176
     1
 41
30.0
176
     1
 63
     7
421
 16777215
176
     1
 74
     0
176
     1
 91
        0
176
     1
 64
     7
176
     1
 65
   257
176
     1
 75
     1
176
     1
175
     1
176
     1
 42
1.0
176
     1
 92
        8
176
     1
 66
   257
176
     1
 43
1.0
176
     1
 76
     1
176
     1
 77
     6
176
     1
 78
     2
176
     1
 67
     7
176
     1
 79
     3
176
     1
170
     0
176
     1
171
     0
176
     1
290
     0
176
     1
 93
       13
176
     1
 44
0.0
176
     1
173
     0
176
     1
1001
ACAD
1000
AcDbSavedByObjectVersion
1070
     0
  0
VISUALSTYLE
  5
3E
102
{ACAD_XDICTIONARY
360
94C
102
}
102
{ACAD_REACTORS
330
29
102
}
330
29
100
AcDbVisualStyle
  2
Shaded
 70
    27
177
     2
291
     0
 71
     2
176
     1
 72
     2
176
     1
 73
     1
176
     1
 90
        2
176
     1
 40
0.6
176
     1
 41
30.0
176
     1
 63
     7
421
 16777215
176
     1
 74
     0
176
     1
 91
        4
176
     1
 64
     7
176
     1
 65
   257
176
     1
 75
     1
176
     1
175
     1
176
     1
 42
1.0
176
     1
 92
        8
176
     1
 66
   257
176
     1
 43
1.0
176
     1
 76
     1
176
     1
 77
     6
176
     1
 78
     2
176
     1
 67
     8
425
  7895160
176
     1
 79
     3
176
     1
170
     0
176
     1
171
     0
176
     1
290
     0
176
     1
 93
        5
176
     1
 44
0.0
176
     1
173
     0
176
     1
1001
ACAD
1000
AcDbSavedByObjectVersion
1070
     0
  0
VISUALSTYLE
  5
3D
102
{ACAD_XDICTIONARY
360
94A
102
}
102
{ACAD_REACTORS
330
29
102
}
330
29
100
AcDbVisualStyle
  2
Shaded with edges
 70
    26
177
     2
291
     0
 71
     2
176
     1
 72
     2
176
     1
 73
     1
176
     1
 90
        2
176
     1
 40
0.6
176
     1
 41
30.0
176
     1
 63
     7
421
 16777215
176
     1
 74
     1
176
     1
 91
       10
176
     1
 64
     7
176
     1
 65
   257
176
     1
 75
     2
176
     1
175
     1
176
     1
 42
1.0
176
     1
 92
        8
176
     1
 66
   257
176
     1
 43
1.0
176
     1
 76
     1
176
     1
 77
     6
176
     1
 78
     2
176
     1
 67
     7
176
     1
 79
     3
176
     1
170
     0
176
     1
171
     0
176
     1
290
     0
176
     1
 93
        5
176
     1
 44
0.0
176
     1
173
     0
176
     1
1001
ACAD
1000
AcDbSavedByObjectVersion
1070
     0
  0
VISUALSTYLE
  5
3A
102
{ACAD_XDICTIONARY
360
944
102
}
102
{ACAD_REACTORS
330
29
102
}
330
29
100
AcDbVisualStyle
  2
Shades of Gray
 70
    23
177
     2
291
     0
 71
     2
176
     1
 72
     2
176
     1
 73
     3
176
     1
 90
        0
176
     1
 40
0.6
176
     1
 41
30.0
176
     1
 63
     7
421
 16777215
176
     1
 74
     2
176
     1
 91
        2
176
     1
 64
     7
176
     1
 65
     7
176
     1
 75
     1
176
     1
175
     1
176
     1
 42
40.0
176
     1
 92
        8
176
     1
 66
     7
176
     1
 43
1.0
176
     1
 76
     1
176
     1
 77
     6
176
     1
 78
     2
176
     1
 67
     7
176
     1
 79
     3
176
     1
170
     0
176
     1
171
     0
176
     1
290
     0
176
     1
 93
        1
176
     1
 44
0.0
176
     1
173
     0
176
     1
1001
ACAD
1000
AcDbSavedByObjectVersion
1070
     0
  0
VISUALSTYLE
  5
3B
102
{ACAD_XDICTIONARY
360
946
102
}
102
{ACAD_REACTORS
330
29
102
}
330
29
100
AcDbVisualStyle
  2
Sketchy
 70
    24
177
     2
291
     0
 71
     1
176
     1
 72
     2
176
     1
 73
     2
176
     1
 90
        0
176
     1
 40
0.6
176
     1
 41
30.0
176
     1
 63
     7
421
 16777215
176
     1
 74
     2
176
     1
 91
        2
176
     1
 64
     7
176
     1
 65
     7
176
     1
 75
     1
176
     1
175
     1
176
     1
 42
40.0
176
     1
 92
       11
176
     1
 66
     7
176
     1
 43
1.0
176
     1
 76
     1
176
     1
 77
     6
176
     1
 78
     2
176
     1
 67
     7
176
     1
 79
     6
176
     1
170
     0
176
     1
171
     0
176
     1
290
     0
176
     1
 93
        1
176
     1
 44
0.0
176
     1
173
     0
176
     1
1001
ACAD
1000
AcDbSavedByObjectVersion
1070
     0
  0
VISUALSTYLE
  5
36
102
{ACAD_XDICTIONARY
360
93C
102
}
102
{ACAD_REACTORS
330
29
102
}
330
29
100
AcDbVisualStyle
  2
Thicken
 70
    13
177
     2
291
     1
 71
     2
176
     1
 72
     2
176
     1
 73
     0
176
     1
 90
        0
176
     1
 40
0.6
176
     1
 41
30.0
176
     1
 63
     7
421
 16777215
176
     1
 74
     1
176
     1
 91
        4
176
     1
 64
     7
176
     1
 65
   257
176
     1
 75
     1
176
     1
175
     1
176
     1
 42
1.0
176
     1
 92
       12
176
     1
 66
     7
176
     1
 43
1.0
176
     1
 76
     1
176
     1
 77
     6
176
     1
 78
     2
176
     1
 67
     7
176
     1
 79
     5
176
     1
170
     0
176
     1
171
     0
176
     1
290
     0
176
     1
 93
        1
176
     1
 44
0.0
176
     1
173
     0
176
     1
1001
ACAD
1000
AcDbSavedByObjectVersion
1070
     0
  0
VISUALSTYLE
  5
30
102
{ACAD_XDICTIONARY
360
930
102
}
102
{ACAD_REACTORS
330
29
102
}
330
29
100
AcDbVisualStyle
  2
Wireframe
 70
     5
177
     2
291
     0
 71
     0
176
     1
 72
     2
176
     1
 73
     0
176
     1
 90
        0
176
     1
 40
0.6
176
     1
 41
30.0
176
     1
 63
     7
421
 16777215
176
     1
 74
     1
176
     1
 91
        4
176
     1
 64
     7
176
     1
 65
   257
176
     1
 75
     1
176
     1
175
     1
176
     1
 42
1.0
176
     1
 92
        0
176
     1
 66
   257
176
     1
 43
1.0
176
     1
 76
     1
176
     1
 77
     6
176
     1
 78
     2
176
     1
 67
     7
176
     1
 79
     3
176
     1
170
     0
176
     1
171
     0
176
     1
290
     0
176
     1
 93
        1
176
     1
 44
0.0
176
     1
173
     0
176
     1
1001
ACAD
1000
AcDbSavedByObjectVersion
1070
     0
  0
VISUALSTYLE
  5
3C
102
{ACAD_XDICTIONARY
360
948
102
}
102
{ACAD_REACTORS
330
29
102
}
330
29
100
AcDbVisualStyle
  2
X-Ray
 70
    25
177
     2
291
     0
 71
     2
176
     1
 72
     2
176
     1
 73
     1
176
     1
 90
        1
176
     1
 40
0.5
176
     1
 41
30.0
176
     1
 63
     7
421
 16777215
176
     1
 74
     1
176
     1
 91
        0
176
     1
 64
     7
176
     1
 65
   257
176
     1
 75
     1
176
     1
175
     1
176
     1
 42
1.0
176
     1
 92
        8
176
     1
 66
     7
176
     1
 43
1.0
176
     1
 76
     1
176
     1
 77
     6
176
     1
 78
     2
176
     1
 67
     7
176
     1
 79
     3
176
     1
170
     0
176
     1
171
     0
176
     1
290
     0
176
     1
 93
       13
176
     1
 44
0.0
176
     1
173
     0
176
     1
1001
ACAD
1000
AcDbSavedByObjectVersion
1070
     0
  0
DICTIONARYVAR
  5
920
102
{ACAD_REACTORS
330
91B
102
}
330
91B
100
DictionaryVariables
280
     0
  1
1:1
  0
DICTIONARYVAR
  5
91D
102
{ACAD_REACTORS
330
91B
102
}
330
91B
100
DictionaryVariables
280
     0
  1
STANDARD
  0
DICTIONARYVAR
  5
91C
102
{ACAD_REACTORS
330
91B
102
}
330
91B
100
DictionaryVariables
280
     0
  1
STANDARD
  0
DICTIONARYVAR
  5
91E
102
{ACAD_REACTORS
330
91B
102
}
330
91B
100
DictionaryVariables
280
     0
  1
Imperial24
  0
DICTIONARYVAR
  5
91F
102
{ACAD_REACTORS
330
91B
102
}
330
91B
100
DictionaryVariables
280
     0
  1
Imperial24
  0
DICTIONARY
  5
958
330
6B
100
AcDbDictionary
280
     1
281
     1
  3
ACAD_XREC_ROUNDTRIP
360
959
  0
DICTIONARY
  5
1A
330
19
100
AcDbDictionary
280
     1
281
     1
  3
BUMPTILE
360
1C
  3
DIFFUSETILE
360
1B
  3
OPACITYTILE
360
1F
  3
REFLECTIONTILE
360
1E
  3
REFRACTIONTILE
360
20
  3
SPECULARTILE
360
1D
  0
DICTIONARY
  5
12
330
11
100
AcDbDictionary
280
     1
281
     1
  3
BUMPTILE
360
14
  3
DIFFUSETILE
360
13
  3
FBXASSET
360
E6
  3
OPACITYTILE
360
17
  3
REFLECTIONTILE
360
16
  3
REFRACTIONTILE
360
18
  3
SPECULARTILE
360
15
  0
DICTIONARY
  5
22
330
21
100
AcDbDictionary
280
     1
281
     1
  3
BUMPTILE
360
24
  3
DIFFUSETILE
360
23
  3
OPACITYTILE
360
27
  3
REFLECTIONTILE
360
26
  3
REFRACTIONTILE
360
28
  3
SPECULARTILE
360
25
  0
DICTIONARY
  5
954
330
67
100
AcDbDictionary
280
     1
281
     1
  3
ACAD_XREC_ROUNDTRIP
360
955
  0
DICTIONARY
  5
956
330
69
100
AcDbDictionary
280
     1
281
     1
  3
ACAD_XREC_ROUNDTRIP
360
957
  0
DICTIONARY
  5
921
330
65
100
AcDbDictionary
280
     1
281
     1
  3
ACAD_ROUNDTRIP_2008_TABLESTYLE_CELLSTYLEMAP
360
922
  0
DICTIONARY
  5
92E
330
2F
100
AcDbDictionary
280
     1
281
     1
  3
ACAD_XREC_ROUNDTRIP
360
92F
  0
DICTIONARY
  5
92C
330
2E
100
AcDbDictionary
280
     1
281
     1
  3
ACAD_XREC_ROUNDTRIP
360
92D
  0
DICTIONARY
  5
93A
330
35
100
AcDbDictionary
280
     1
281
     1
  3
ACAD_XREC_ROUNDTRIP
360
93B
  0
DICTIONARY
  5
942
330
39
100
AcDbDictionary
280
     1
281
     1
  3
ACAD_XREC_ROUNDTRIP
360
943
  0
DICTIONARY
  5
934
330
32
100
AcDbDictionary
280
     1
281
     1
  3
ACAD_XREC_ROUNDTRIP
360
935
  0
DICTIONARY
  5
938
330
34
100
AcDbDictionary
280
     1
281
     1
  3
ACAD_XREC_ROUNDTRIP
360
939
  0
DICTIONARY
  5
952
330
41
100
AcDbDictionary
280
     1
281
     1
  3
ACAD_XREC_ROUNDTRIP
360
953
  0
DICTIONARY
  5
940
330
38
100
AcDbDictionary
280
     1
281
     1
  3
ACAD_XREC_ROUNDTRIP
360
941
  0
DICTIONARY
  5
924
330
2A
100
AcDbDictionary
280
     1
281
     1
  3
ACAD_XREC_ROUNDTRIP
360
925
  0
DICTIONARY
  5
926
330
2B
100
AcDbDictionary
280
     1
281
     1
  3
ACAD_XREC_ROUNDTRIP
360
927
  0
DICTIONARY
  5
928
330
2C
100
AcDbDictionary
280
     1
281
     1
  3
ACAD_XREC_ROUNDTRIP
360
929
  0
DICTIONARY
  5
92A
330
2D
100
AcDbDictionary
280
     1
281
     1
  3
ACAD_XREC_ROUNDTRIP
360
92B
  0
DICTIONARY
  5
932
330
31
100
AcDbDictionary
280
     1
281
     1
  3
ACAD_XREC_ROUNDTRIP
360
933
  0
DICTIONARY
  5
94E
330
3F
100
AcDbDictionary
280
     1
281
     1
  3
ACAD_XREC_ROUNDTRIP
360
94F
  0
DICTIONARY
  5
93E
330
37
100
AcDbDictionary
280
     1
281
     1
  3
ACAD_XREC_ROUNDTRIP
360
93F
  0
DICTIONARY
  5
950
330
40
100
AcDbDictionary
280
     1
281
     1
  3
ACAD_XREC_ROUNDTRIP
360
951
  0
DICTIONARY
  5
936
330
33
100
AcDbDictionary
280
     1
281
     1
  3
ACAD_XREC_ROUNDTRIP
360
937
  0
DICTIONARY
  5
94C
330
3E
100
AcDbDictionary
280
     1
281
     1
  3
ACAD_XREC_ROUNDTRIP
360
94D
  0
DICTIONARY
  5
94A
330
3D
100
AcDbDictionary
280
     1
281
     1
  3
ACAD_XREC_ROUNDTRIP
360
94B
  0
DICTIONARY
  5
944
330
3A
100
AcDbDictionary
280
     1
281
     1
  3
ACAD_XREC_ROUNDTRIP
360
945
  0
DICTIONARY
  5
946
330
3B
100
AcDbDictionary
280
     1
281
     1
  3
ACAD_XREC_ROUNDTRIP
360
947
  0
DICTIONARY
  5
93C
330
36
100
AcDbDictionary
280
     1
281
     1
  3
ACAD_XREC_ROUNDTRIP
360
93D
  0
DICTIONARY
  5
930
330
30
100
AcDbDictionary
280
     1
281
     1
  3
ACAD_XREC_ROUNDTRIP
360
931
  0
DICTIONARY
  5
948
330
3C
100
AcDbDictionary
280
     1
281
     1
  3
ACAD_XREC_ROUNDTRIP
360
949
  0
XRECORD
  5
959
102
{ACAD_REACTORS
330
958
102
}
330
958
100
AcDbXrecord
280
     1
102
DISPLAYNAME
  1
Imperial24
102
FLAGS
 90
        0
  0
XRECORD
  5
1C
102
{ACAD_REACTORS
330
1A
102
}
330
1A
100
AcDbXrecord
280
     1
270
     1
271
     1
  0
XRECORD
  5
1B
102
{ACAD_REACTORS
330
1A
102
}
330
1A
100
AcDbXrecord
280
     1
270
     1
271
     1
  0
XRECORD
  5
1F
102
{ACAD_REACTORS
330
1A
102
}
330
1A
100
AcDbXrecord
280
     1
270
     1
271
     1
  0
XRECORD
  5
1E
102
{ACAD_REACTORS
330
1A
102
}
330
1A
100
AcDbXrecord
280
     1
270
     1
271
     1
  0
XRECORD
  5
20
102
{ACAD_REACTORS
330
1A
102
}
330
1A
100
AcDbXrecord
280
     1
270
     1
271
     1
  0
XRECORD
  5
1D
102
{ACAD_REACTORS
330
1A
102
}
330
1A
100
AcDbXrecord
280
     1
270
     1
271
     1
  0
XRECORD
  5
14
102
{ACAD_REACTORS
330
12
102
}
330
12
100
AcDbXrecord
280
     1
270
     1
271
     1
  0
XRECORD
  5
13
102
{ACAD_REACTORS
330
12
102
}
330
12
100
AcDbXrecord
280
     1
270
     1
271
     1
  0
XRECORD
  5
E6
102
{ACAD_REACTORS
330
12
102
}
330
12
100
AcDbXrecord
280
     1
 70
     1
 90
1959938040
 71
     1
  1
D376BFDE-B4B7-4602-8C9C-77DEEE57E302
311
504B03041400060808001659844D4B38E43BDB000000200100004F00000032333736323939352D303134392D343045452D413744312D3230393137443441393836372F4173736574446174612F446566696E6974696F6E4974657261746F7250726F706572746965732E62696E454E4D4FC3300C0D5C10070EFC83897B489A
311
65CD8204685D0217B6C3F6032653CC5629EDA6A615ECC6917F0D8E568425DBCFCF5FEF9B31F63318417646FE45F18AF23336D856E5BADC610DEC8298E2F802476C131C9AE70453E9F01DFAD0A5B545154B0C011ADCF7F1FA7F74544347F720DCA6A54BF23F22A60BDBD3B724E0E3A4E9932083B7C3DD23C488DDBD5063932B
311
6B275C66DA722DBDE733E332AEA4CD8CD3333BCD8D5861DCF76D8951381A2F9E9CE7852E0CD7B9547C3AB7736E8CF3DE4F8C1F4B25BA5D5FBF36500521C520617368B64B62B1BD79F805504B03041400060808001659844D58B404C6EB000000300200004500000032333736323939352D303134392D343045452D41374431
311
2D3230393137443441393836372F4173736574446174612F496E7374616E636550726F706572746965732E62696EEB606060F80F0540260323103700495E20ED9E9A975A94991C9C9C919A9BA802147031363773727371D575327132D735313330D2B570B674D6353777717575353577353630624768046931363471713532
311
B5D435353131066A3132D475727372D13534373670367376B67474B5042A03DBCBA019D37FE8ABC6157B20CD04146B0062181F4C03F940F0C11EA29A8141C08141002C0426541C106CAC2CA046088033B02A030AC2157C6006F21A8018AAF50194E6010A610250382264E08660284CD9E98021862280A91564B406929A0FF6
311
2C401E28B6F88038B83CB1243943D7A928312F25350524432B0000504B03041400060808001659844D88E57597CD3F0000904100006B00000032333736323939352D303134392D343045452D413744312D3230393137443441393836372F5265736F75726365732F44333736424644452D423442372D343630322D38433943
311
2D3737444545453537453330322F7468756D626E61696C2F302F67656E657269635F706E67355B773CD4FF1FBF73E71C0E67EF7576C9DEF3EC995D46C6A1EC5046649CBDF79E192942562825CE965D8A868C2842C8DE9FDFD1F7E7F138F7078FCF6B3F5FCFD7EBFDFEC41B196891913091804020321D6D7513FC77D8C5070E
311
C3FFEE51B21F068154CC75D455CC028A3EA68992803810109FDDE5D5CEC5521B28A1B422BF80741695D5B529DA1C2D058AD2388BDA9F476F7C2CADC939304173DBF48A452BF8A700C0C70C3D121C1AA15A5270C22E2B9E28763651F7DA0D12CE11077B2ECD0D560B5E3DE2368B1E65C5E1C87384A4CC5F2D9FB8BE39E9B77C
311
753783A37998F5CEF1B4FEE553463245C9712270880DF339E0B882A6BA713D865F6F384C842D440934EF264F4A304F8DE4EEFA1E2BF5E2D91F5ADD9613D6E31DDB33ED31DB1D7916CAF091286EA3D31B9CFECB78BB0060245B943C4C040119FF780A74DD308BA9D028678674EB5504ECF284EE814DAED07440BAF649BE4B55
311
DA2890F4D73E2D489A59EE54FDB0A85B59F2F52C4858A02705C4815A792B0C4A996A2023ECB195073E115E3E3647F64243A8338F2000BCB58DA5692C7E7C3D413F963FEDF3CF00FBB0F831A9D51360FECA43819F527B89FA260EB63C5DA676830AA3626A3693B23F1A17A0DFFCE3EE164E31B5365EDF0C89EF64D8E38AB0BA
311
9A1117D7C3A0EC44F44F4023095E80BA610DE336D0F99593A88BFC5306E72DF98F7FD132ED95878DF2964EA7E43071359FD83B2BDF9C6B5BDF768F0F3C0FC351199526F53D9460A34511F75D1B63E488178569472C91A94497807A3FD4A390C6558F26D416365C3656DE6E769DA9D8FC73774E1709812842DD8EF96AED1960
311
F79D21B395CDDFE6F92CB4EB962A4668C76990E2EF29798C8941D67DA50F4A5F947872460F1F6FDB794E8A29FD7AC0C0D6E0714339CE258FB17AE8535221E3464A10F29A0BE5EEECEFC5675926A89F49EB14E5711894F6586DB5754EB4D5DA9C6437EBA57DB97A24F8B8A8DB295FFD73266CF57E82694DF5166DDF93573AFE
311
9C9C5EB05F8FEF8E89E0A8917B0B3724DB7BEBB53252581EFC3E38166BA131A3A5B42FE2AD00A769BBFA4458D2DE7822F8C4F63D0B8E21B285AE13325F3410A435C648C9D91FDEB109E73CEDA7BC796961AF79175E1A3CE4C5E8B0D009B0C9E29EFD98BC8E97554E3D8D838424E270F7685226E5AC268E021EDE3522D583E8
311
F20C0BDE2959EF5BBFEEDAB32FE9A3ED0E39F211A86AA9DEBFC68182EDED132AB8BB794442D2D7EA9F4D8BFF52BC4D55BB165124EE90A42D101E67BBBB292FFB4F66DE5BF2300E44546757DA7CEF8932BFC9F92A0707953491A55C5A5ACEDABD9FA1AEA01BAC3DC5A24E22E7C47213493996EFBC369D086ED9397C9BA6C7F9
311
855C7BD5E15BFC8C53DB3D2A4C5901A57ACD2FBDF4D1676E95338B2C2BCE65FDA4C64F5FEFDC7D9CA5AA1FCF11E193F2FDABF0F4916BF13FB916A224380E6462A9815F2300DC49CC4DF8D055CEF76462F4B7A7ACA7365C2707891370BC1D0AA6203C44CCAB47084FEC057F27FFCD57F89B8B9852459798A675C66BD7CE572C
311
AF71FF7E6D7ECF7BF62CAB7B3F1107DCD04DC55A3F9961700286141C94A4F771FEB2BCDA2DDEE0CB0BAE402FF1DB0100F8E475DFFFC074DDB4498AB7D186A7654DDB1CB680D703D47CEB4E72F8CB13D86A4AA68116E26387B93FD6738779B34FEDB8E517EDF2BAF28D9BE93A1D3A164320E07D42E514725C29515FF3617542
311
13EDE06B079A2E99EB1CA82A02019EADEEB87B9AF005BD04BBCECB14AACD6B24EFBE482194A97DD32400685FF1FEF1544D1B14EFB1E7F08E6D2CD2AF52DE757F35F5E62332EE88EA26417AD5C3E0E319D68F25414E6D672BD4522B278C57D18F0113921C71D96527E091F00CEB15AE23D24667369BD3CEFA10C7549D930890
311
BA4366F4EBC55F01F746109F98ABCDD5A3EE06619C6AD78AB33E48E4C9BD21BF7478B385EC05C4F8987E2C1BFA0A60EBEDAA0AE0B015C2720ECE180FB6F2DEFBEB822D96338C9B63822183BBF52FB664A7AE57003AABCE512BF77E7E31BDA2E739AC4C131657DDFE5225E900FB56CC01CDE808FA4A9C9DA16AC679656BB647
311
96283D89812B8F91136AE18EE5EBBAF47A73BE3C153EB5D4CD491B4BFB4FE690A4CF9ABA08C0D8AA64220C438C96EA6CA80B58FE5761E697B3A292EB9FBDA502FA863E49FE694ADDFFF9D62C520BDD1A22014147A0903A05B9B729F54272EF83931FEEC057BFF8C8055C279EAC5C0011804828734024F6CFA319C9CC6867C7
311
27184465CD9BB7ED386AFFD96B294A85E3802FAE47244602D8273615952B98C4F23F7EAE4463D9D638EEE374A20959E0FE519C4CFB0FBFE5DD80C2AA3F9DB961D1BDE57E67C9BB47B77FDD74EE3094F5DBBE3EBC1FBDB7393F5116263009E2EFE1AF9A221B2AE234C902BF70E9F280ED23E73908361565964333A3F01D0B00
311
6AF32FB21AA1316744B489D5A198E85299241735BE559675130955C902A8ED761FC0DBE337A9F91919AF5CE32AF902ADF9AB2615E00E8A94586BA1A90839B61832FF1BFB76D2EFADE6DB1BA04CCAD3DA649E7E2A0219F592E22F2AD54847EEA8E42271011E9074F8F3DD9FBA6CDF88FFC9FC7E811AD1CA8F4557CE4AFC7BBE
311
DCF0114A48689F20A584520C74DA8127124B767E2FB91A6B186246727BE63C9445BAE02088D58B8EFDC0F1072407CD9B89A13F6303B4A928F593AD489B58E6869325790ADC406036C591729FE14021F94B7796BB11848D463536A092A26F077F94639F7CEEE2A724C66EC885F4A24F8B8A0AC321F8FD149BA529460FAA34E4
311
663C02D41FDF80BCA222D42F0ABFF8490F4FA74C673807C2051D8E467B47B616072860069A9A303ABA9B319D58404461401B0A0F9BE5E1E151C14BC33B32ABE03DDE91708DFAEB15E7C0D593C86BB7D7EC17BE56E57975F077BFD5525F3A1A361D584A75E08CF29FC7B44B2B3085014F3A5A14517377C3F6B8F37E59514C3B
311
12F8AACDEDDA4DFC49BE5710101534CD6FB6DE15B50F11A09472AABA727F0C49D9CB906B158030065F48EB3625E010CEC1D511D0053474B11E6A4F01C0D6EF1BED3A944FDEC70E0DDCDC756C86545910E0DAE3BE3AA9A404574C2995CD5CAF9549226BC94B4F4F0F5F9086F418F6B32346464610D8BC7391D3C3A3CCF04CFC
311
1FB2A3A3170E369511868F14EEA4E5E438CC73DB1F3248AA94B6B2FF33B222FF3D1E7BF146CAD229770158063BCE4F5391964DF62F7E52A7BE0EEA829C9E13C4C147D6F93FE59E111DAB5E4594D6F3CD1AD375EE039930EFE5AF2BB2D41C83C7DABD8C659BAFBE8FAB392CA634F3D15C1D945DB4588D2B0824A4EC928AAC56
311
5557CA2F0DAA588CA5BE30B3A8004F7BF005E96CBF891D7F18112A3619FDF530DC8AA64954258E1811789B5189B49B4EB53F5F89F7D37523894F3EB57B373763C91E502F52CC99EB7BDDF933FC324C4FFC2561DFFA7339FAFDD0A4BFBE6D3A8FF9ED1FC49898139864602458968913181918F719CCF5A68B2EE9C1FF050E34
311
E63107003B8120FA982C21B30A874E4F5E4B38D5A8290C4B8D9BE48A0BE31EA995BDC37AC6DE90BA17D259DEF53605D55922FEB1855D915B659FBEB350EE0DFB2F9F766E1C84CC8964B75D08667445EAB966015F63A18A9E0A325C1B3DC628C0D3CB60F767FA93CC65F25458BD23C3B312716E5F40E5858AC06EBA9AB14F95
311
DB99147B832069201541D09A0D856E12C629CF32683760EE855537D1901988D5EBC156676C7DD51D7207CF3267AF1D76C2AD867315E44618015313A98B19941C696FED3461CAA9B5415F918556D7802EDACEFD6B2E45853A9735DFC9DBF7E440F9319F8B6805A973BCCDC76C069A9144E51F187EDCC12FC31B5DEAAF0A7613
311
7199B106EC84ADA6B6EE697D4E6A96E007417F4E880E8B1E89B4BCE9D81EF611E2ED8F0C1A6C25F620FAFAAB656A7C42D464880E8AFAB0E0FC8EA38CA9A8AEEAEE3E4648BA4680270A89743CDD3E6C6CBF34B7B640EFA285ABC7EA0A1E28F3CC963D114A80123EE66D0AF7D5380EB41909B605AB4765B709B808590458157E
311
69BA1378FEC4B48CAF6A730E3BE3C5EF2DD1A5EAF94B1DDE50CEB55DDFD7EE9A16747FA4B223359FB1FCC69E1194892BABB93A1D5C4E807AC0EA2E30180811E77A2291F6E7F7FAA5E0F60215BC6024E48DE436C511F0628B8CA189982D4D83CCA17D305A7E923C37941CFDFDCD93ACAF735EF5F0E61BBD3E6C41A59B242790
311
D3A3BAC7064DCD89AA2E37214EC839820949D5CAA31E240D2948E48F690298974A96BA9A8432BC90F5071D6537C9666EA4564796B7AFFFA548077BEEA75F63083435074BA182F3699557397F71548383FDA8CA34D99B981E72835ECDA5DDDC151315173D05A21F651AAF8524E88209E2E7A737ED1045800CE3390050BCFB8B
311
E588DF111617874C62575039CA588EEFDEFEFE319B739DE2EDC147092A262611E159650E787917885EF08F1F51B8F2D8A71D60B58B190FEF9541A1BE94BC19FEA50784DA1419FE4B0FB51B8D36B5FF8E1286FD8AF42B91E59A5F1CC4D60174E764045FD8C57B18209B217F89A62252BD20BE0E63E12B8E8F029FE19E0E8D08
311
70F58721A557082250D5424F7909369376E41666C0EE77CD87CB283F661D5FB6D0DA023CB67320A20DC7BE661E9E1BFE5463085C557DA1FF9BE835733766C3D139F2CF9E2208873AD0EB4814DE9E6BF2CAF81614D4D43906ED1C05A3265CABBFE192770FC2F64F940CB6B17B5F166F133C9AEEAD2641807C3E69515171DD74
311
C4A85311513D6EC9530B3B601B6BA3EBFF3B5C3D2F7D69765141E345F75433953D013ADDF8F6AA7DC3F4A7563FE5C7D367937E2900D7EAD0F9FC9A4A1A9B5BDF1FEF08532660C01C5D6DE22199AA774383E306DAB87E301ABB7D213887F9869D4942D0D71E94B27EDF216A318BD488D45DF84529EF575AF3C3938C0AAA0215
311
B01994153E2054A0B894DA5C784980633AAD48576957CF4AEAEAFADC7C587368551C73DBE1E57C58AC713303A8BFC258BD04B51724459FF9E24C03A81E0E0679CEB9B348C0DC998FEB9C6D6EFA77D247CC8F92D3848599ED89A23218D0636465AD1CEEB7DC140D7426F83491C4E8E8281C2FB35240918FFECE880CA2A42D70
311
E8B20B34DF5221C7DB0CF90ECCB9C745B37A47E9B716FF7A97B7A252C1F3814DC7B1E1A7F72B8751D524EF7CAE45B0C73B3BE7D08ED39781B380DDFC9AA4A4749C9493DB5BAD07A6EA6C092FBD0E85DB004DF06B8C9D3089C5320187E4CE1846158C7EA7DDAE8AD9AFFF21AA3A1026BB06A259845E8232DEE62811A4DA9CEA
311
B3A4887320B76E2AE5615EAB7BDF738CBDD01F1E64064BC13D9EC53576751CA8CACD58B3CEB0E6CA585BD089B2A59B9FC101403387AADBDBE70586B93D64BF3AD4453EF9C3B6A93817E8346991798601344F79A83C51F3D50F7BF2683A3605F51A72449489E0EE6169C749C60B1035651103AEE24D24E51A759C840DD3FC65
311
04DA6FE107510E447B43461C79D22970B75DE5E1BD3007D1AFC619A4A4A69B5626AF5E9B8374E20677F77E2F8E73DF868E8BEC7EBA7B6A75EEF7205E1AB9486CB642741D6E03FF13FCCEDB1C4AC129886268B01CDF4B124AF797CF784F3C6DEC97A17D4B558070A0F1C04DA4FF9BDBF34159AEFE958479824B3F58EBD1E190
311
88A2AFDE501B6F2052368A3FD0E650A179EFAB1561E1D27527077136E652676C3670F42DCB3352F48F6BC86D2C3B0051727E41A0A4DC6CE2BE9D47F5CAA2935A3C0539AF080665997194ABECD723B08129CC5B6B21D2E7D54CD4D12610E7E9FB8306771A89576C7A982002775ED44F3F744CF21EEBB27A631671D921938AAE
311
E3EB0D19CD1E083727F607823E817BF599DCED5394E37EEBC2E88782E638920CA641EF74D4CDFCDEF06F4278ECB18E31E7E9876F2D783C8BF429C75395F57E98C2B495A3DA077EB3AC3C158608B6B57FE3EA48484D9A480096FCEE0DE880950E7E5A5714131C5C41AAA29FD19AE81AC145FA1B9E85C7169A5AB837B213493D
311
F7E9AA4B5FBF9CDEB36EBD21EF1181B7CF7366AB2A951D01E37AF4EB835D1BE8C117CFBE7625D2EBCDB0B20C5A4B45CED0BCDE3EE8DA9DA78C2E21DEAAFFD1197E463C33CC6A80FB785669B856EFF7A8CCCA2841B5A5369173320B1170C368B2748D81062EA0296E5E2D95D7667A4A46D98A6FF475C76AAB0A8C8D45E226FA
311
FC9FE0133EA9F60111F99CA81ACE03A1D14C89E8B0D69079C91464FA1D99E651D0EAF606F345C42A8A1AA9BA391031582B96D5B4176A77AADB01F12FD298A75DEEBB2C82F0B8650E880722F8DDD90C56A7A058E5FDEF1AC93545BA27367C76F5D8F9690CB6F8DAE141EDD7971F0FB548A2AE435F224D6E5954CA155512F733
311
2029D5A1230854B79F258EC5FFDB09F5F6343A8EB193229B7F7E79B3E48F8E183860B38C8269D1B53738FF1E0BACF6AADA6D4869E9DE708E79B5DADCC09B1BC76F649731CFAF59A83FD8BAE4C749D66FA87A3810D4D62FFE826FA400C0F325D2BC0F3CA35F5847B82A2ACC7961745C823E4D863D54460AF792CE6F79B5C7A3
311
3B25C3AEA6CDE15A919B6367D781E9D44F61BF828672594A3E1D9EDD6DF179A81F27EAC05B936575D73E05C209DDD2115CFB705DF9BBF3C911589B3640735E9E618FC9C36A7326C82B2205E244C55D56FDB9D5DC93CE958D4BF8174D2B3DA54CB3C09F2C2A6DFF73D23B2197355761AD421EC581284A7EF8DE2CE3497C0C80
311
4D49B41DFD6A7360844E5BEFFB495CFCDB97A4595911CDBA623274CE852B5E278AF0BEB1770E9D37CD977B2766A7DED0E94B840E1E95E8C77DE5CB6354AF7871427C28ADBEEF7BA0A28E19DE9ACD75F379FE373EAE6DDDAE3834692F9C2B03B4FCA8FCA9ABE8EEEBEBB725B88A7C90941E850682CA04061A7DF0CE82ED49BF
311
AFFD42C309818FAE14755CAAE78B0F73243ECCCAD7DF58FCB9CDFAE7A4D3E6671A613639130D056C8383C8F4FCF4808C331E544DD26E4755D09EA05253B3049A1E32587CC25D72E073E2CD96D04A71BBCB0038FEC3F53D254199C3CDC67CD66640269431860225392B2CB3ECD0B4498AAE78BA1994246AE1EE78F2EDFB79F6
311
C6CB6B5E279C4D373FBC21CB2698C9ACBBEB6A4BB6B39E16AB0E421CCBFC7654D81ED86022F9BB522146F9F4772E2D0E4FA70120C95A85A417BF5078B232F4754363EB1750B2AC2148EB46B1EA72AD9B4D23ADCBC589D70106C3EC2ABEEED84DFE28E718C6C83502C28E9FDD3B09DA0A6F6F7B72B706A31C9E2A331EE70DA5
311
6A083D2177BFD63C55B11D8D949FAFCF90B23A1E24B9B5018B9A17E99F2890EC302F330FE7936E2C23F0D237EC8916F5166AB84B62A21BB0B950146962D754F92CC2C8877BED8FC7B7B25726DD19545392570B3A2C66B58F027BEF412E552D12A588C4A3CC5C3193FCB3485EFFF700D0B9EEC077754A33DC1FB9E25AF81462
311
8F91DDFECB667D3F7690803F38D13F8AE39353523BB08FC6760144AFA2CE28236F65EDBB3D5F59A57D612B99E3D7E5F8A851666BF9B5A6658EFC96EEB37A378ABB0EB3FDDF1303AF32C41BD1C8560745D7BD81066B0D6313359CF488563D3BA3F8E2185D1FAA3EBA1397C9D0E3DD232180A4DCADB6AF25DB3AC3CC26589C82
311
39E66E81547BC7E2F328F9884764CA37EB5DBE390DFC03A5246B456A7C3684C4377D0EEF9A350680FA9A077E8B2957B489E09AB1AD41316944C2254B5984830F691C93CAA767EECF976FA5647538830B5E63236A6F0365C1E0F3E327F24FE35EDDBD7360B0F7374837409F7A6311BECC12B7026D4FA1AE204FA3F5FE904B1F
311
420C7A9044AE58E403E7C4848E7DA25DC9EDAC79DD756FAA26B9EA83ACE8A214A2612A22AFA19DAE7DBAC5F8CDE1292A485F98DAC731A29FE01A3966E96BCB9FB5A4C8830E1B9AF0C54B87FBE221A097036E5D28D1F869F810C06A9BB0AC0612F69AEBAF893C6E7AD59460208BAB3A6B09CA4F6BDDAB8CF0D1F84B72487498
311
395A70DCD754796E271099A567A55CF242BBED64696378BB6CF25EF0FCDB589F3A82F1116D010A9AB9FA4358809EE0C973A2B4229BAA876A70B03AB49CBA7FBE71DB1832FFD32F9BF2C8E98075CACAFB36921235D0F552B6A67E94E094097A5D7DF681B40623DA535ADA7A9AD8E9A62407D7C9A5AE51D62A17A83A23728DE8
311
6BB56115804D3F2675F2C6B87541A0FC497BF0CA86420F558C9859EBE9FAD62747E323E3AADC03FDCDDFE7407B09DA90B44E3185723C5381EAEF589765E2F7A099BA46695BAD60CEF3491B8A171F5F56444F7CE9455312C3498C74173AEA0214EC029833B34B650CBB5A5508D5091665309642791708ECF27CF11DB3D797D6
311
CFE474453BD4BFADB768094B2147814D81C7CBAF8228DCAF5564B5891F5EF6A860EB2E323CB82AB868D8EA048880D63B0DE5341F1B3D53297B928A11E15F25E5148990F710747C3509ED14909C552EBE3973246FCE55D00564D8310BC3EBC5085D08D806799B77D6C57FDF5E55837F9E934F09C03C729271B64F12D0A9F9E9
311
38107CAF7BF1EC8CF1BB9B42363D33070F4CACB425E605DDB0A34A12BB936DE286B9887A4E2E558F0886498BFF49C311D96C277CF6A9FC0D75AD0ECC5226D7E0E3572012E56D7FDE4410CEC7A6D0F997F225A2055B8B92E3956E875AE4993CB3D4C9063AF98FD45E1BAB165640A43439A2C9181A7C355B297C0A0CCFFAE19B
311
6FA3C2BA238A885FBC98B8F6DAF4B94B97304878DF4D8BFF6A4AEDF79E90ED4E68F00CD7299F4E0D83E35601AF0CBEF18C1E870E74758FA91F5131075004DB3CFCF09AE1DABC11957FD9808C92E8A678CE9DBE40DDA0E0D1D505AAFBCBA208232BFB6FB3704E8985E61ADE53DE74152F5C7DE74B1DEDCD37DC3E8FB30D7EBA
311
8B9EFFC3606BF90B8D438279CB7709FC7C00D327F41817EEA71CD9E49FE9C8C9A81C70915D9F0F15958EC5AA4C3BBFAF46986B90F188BDB24B89DE3C6F29EC3E6F66D84856EE96A35E657CA41B41EFD8DBFA16AD6E91439EA92B40B21C053249F51AE50EB0B24C770FFAF40DF12C8436366819C48E36547D4E7B72FE2BBF10
311
828583057814A668BDF183F6B2E58DFB151103E56303E63D00F39C27C4661605DB644D19175D02E3F0241E8FC3458D17AAAADB117CE9EEA690D0DB01E634878C04C2C9310B69FCAB831151E3AD293BEF6E46B0ABCECB50F5939B39C613D41E81FAE8D34CAE3C4566B761D37185FE864AC32FCB71AEF39DAA5BAB88609BB980
311
CD2F07A8F941653B529567726E2B2A58D079DD57E1E5E31426CF184A04D7B03B985F276D47406AF276FE32E3328BA866EB1FD39BEF57863A317634AA5FE467409B3873F5069EF0D71AF00AD189D17BA1974ECDB2D623E9E14086386A6AAB5807825C37B015BFE892AFD154920EC437EB945D958E18622E1E0FE2FA06557CE4
311
BB9BBD05A2D40E774DA2B65473791E314B7D6C886820B2FCFE4AA272B3B8B15E7344A145E8AF919B5454D89D36D413E87211186BF6F645E5EC94DCCE8E1C799022E4EC9BC86D7A0F2AFB1FC4B2CE48F84B3F49ECE65BAD24CADCC07EFF39AB06BE9E6B27A059938EA7208838455383DDBCFCD967DDE4650EF92A14FF933C97
311
5DB20BD7FEEBC4487576485963D757D16340D9599FEB362F775F38CA4185A86F74B629C81B133644A3B18FD056E997E0734F9BE26D11C0AAFC669E2AC9FC41D281F8B2E1C35AE27BCE05F3DA295488096688719D974DF1B5D182DB7792288697F8763CFB43562C1CDEE11C4AABD5C22B6E33F6F389CFC3477C5919DC0D533F
311
8A7A1846B7ADB60ABDC26C43D0CFC8910B7C15EE22675BD02702ED39DB77A87A192CA7A543E6205B979B9F5A6B512A3CA799E198B2D5797C0AF8D1D872CA455D4D431A7879D4DD76110B5FF7F4176B54477A9EB5E4A5D11214FDA585F0382751D8E2582BA5D2075053298FEB8F1537304E32CB22C2E2B693DC0A760B1DFCA7
311
51BDC445AFDCBB12820ED85F6D5298933C7EF1211E9E057684056CDA3FEF3BB6052355E162DF27C59E965A8DDB7F9437EB72CDDA3A090DE65A5B2F50326247B7EC67B73ACC7047FC9B353D6EE990F772207C6EC52B39DC2F3C0754821DAB559F7C1809C7D0DD5B0499D0442E0A6E391B3D5DB46D11E731E6794EC77523FBDA
311
A242ED67F9FA1FB684255671F63C9BCFE6E7E896D51001A6113EF2298BA494E0B0980D1FA5B9D60796554C02256B1E0345FB7C6186B6A19D2DCA270416262845FA4F42DB5D9B0A0B6F07FCA2E56C242522E001E0CEB734AF310FC8BFB57E38E03AACE93B3326A2197891E68452B26A6307FDABFEE0223D3C03C3C73D2D5BC0
311
54C8311F12004CAE488E5C29287F8156A2CAA4AD0D7BE6B97264E4139F437CE73ADF52E5134C52B819777C18B323A5924E4F67AFD13B1CDC3A61793A79FAF5C0CEB718E441071E797C6DCCB9EFCF7E4A1E9F3DF3C2F9C9E8294E9586868788C972857FB0556D7A26941A7EEB9B580AD78EC40B85DC906B4120A563CA3B8779
311
7ED612D3B035962BB75F6515A393F4CB057F564CDF54F2E5A024514E6A1F901DB80C7E70B1FC05E356A7E72FABF4775B3E3FB8F70A2A8E7B6A94542BB304157978CCC999E707A29CC795E67A59CC546A5D47B368954CA7B6E75EC9E1F6FC73CE3B4F71F8CB1A6B15923D61EAAEB14626AAA9D04A26EB9C66CD1BE86CA31A5D
311
8703DE04CD1EBCE4F5CCB62F93909AD11E55799A781A956ED27D3E738F4538CB04ADABC7DAEF20BC35BA6A90BCC1DC61BA05F20D8832FFB9BC9B15E2DB838A0AFBB7E0C82A562127E0446894F427794C3037186F622BF24DE1B00AA10A23BFA47B2A180D6DA5AD6F7326FEB8C100C2D7142EB2A0B2A9D1008A09BA343D70E0
311
54AB69E2A7EDB783CBD92537FAF4A44D1296AC2792729104B3276C276C951D0CF3CF3F1E6B017720A7B8505A5FF9589365979678C36F1BAF759EAF57C60F1FF5FE9DCF5F8E764FF25A2D06CF25117A8FED51884C13B2B750DB0E4F5E3D64124FCF11F0AD8F1CC3B3DA4B38ED22BF1CB2585EE6BFEBBA63FBFD44F9537B9B37
311
BDD6B358720F98A8125AED4349CCFEB0E135F19E208A04CA7E2B10711185D72E381F448036EF57C9F874E54A971CA37A639E986AC0226DC5AA00D5B14FEA9192234B3DE617814FC221C92F33F1D392F297731B567FD98FD91D989379AF567A65B8ADF177591DB90FBEA99BF4ED11B16E50A0AB1DBF1156D034BBE04D69D08F
311
939D8E92BF525A1DDAFF80ECBC95D8F45D3FDD289FD23F7D8B452F8EBB34EC082DEEE68E18EDDF072060FAD2AB1504DD4879BF67099FC58F6E9DEFBF645D16334A3E9A127C6F1AF6132CF287E433B43A0EE93812B4AA0B194E03EE3FF91EF9C6ED0074A2F6EB18A96A7C9890B1FCDA1F2095E944DB911ED54C60DF16FB74C8
311
CE9BDC7C54C4F14078CF73C2FFF1F1BBCCD7CF64F71407EA1683DBC410D226627F66E509060D5C0AFD611DE681D509DB8DD12FB1265B03C6F5C55FF4C30BD94187FF692B4F152982502F193098A789526A038AB529A52BC0DC4FB6285CBAC10A8B8DB75DCD9BDABBB221E27D1F8DA9F5EE5926A1C8AA9BA9BC09239C6A7F12
311
914EA3B59EFF7AAEC3FFCCE56F1C5C2980AD072793527565E774F4631DB178CEEC691B1F367BEA0CF2907E1D6B854D527065979DDEF002D8B2ACEA7CE21AE297737EDE1D45B31233B73FEA35BCFDD0B09721FDBAF6432681F2FD10C3E9EFB246FD6E854B344ACC9D8A0EEF876A7314B49B6A499FC650B099D650DBFEC7638A
311
DFD245E2B7839DA5AC5F7D5623FC0ECEEC8653FC9B2BDD1AD4D00A566FBA7186DD3C9CD26512551637498CADB950FEC71ADB9A5524285DE328B8EC7EC75D2345AEC6A27C42AF6D9B92155315C80DBFCABBB7DA0FAE425C4FB896B15C9BFAC4FE67DF5A23D30C93DA4D8F36FB15D100050DA6062E22AEC5F4DAC4F6FEEF97AE
311
05DE63C6D38F9E068A20BC5E3B6BCD75320C5090924E7F93640A7735B1A43451C2D91EE62C6238B797349E59890AF3A520DF4A87095F3ABEC2E61F0593416CE46CDCBE0E00E2523FCCD04408588B5B6C9DB6459C786CE378770B54F51DA3A5E1DF2A3349BEAAC234A6CF8993B598B3B25B4B113E353A4D750FA7534749430F
311
3EBF2512E7EA3FD43C6AB9A1F765A58463B306721A15D224FAFE8C6F5E3432D57EE697DA0DD5A9D4866A8BCCAAA9DFF1F06047851408FEC060471D0E3EB86BFAF46E4B5E60311DC3E3CEA147C75CF971BE74689507154FF2D2E92F15CDB2B9182B11459FD8ACAC5A85F174BC94A7F4EE4C4F5CAFA7C02E37BF0BC77B7DCD0C
311
047BC316F562A01A441AFA7931CC84A28CB9F4AA367EB515778F29BFE61195FA671F4352E5E46E3A64773F1F76EE5EB36D7BCE9BCEAD837A4D77F8DB8C92AEEF6711920D7C7D0F76B0FD0EB7AB83724CD35BCA7D36DDDF5FBB7FF6F04A91F3E2BB3B8F1A43CD659639507FF6331C5F697BCC782AE57D757A27D97F1AB9E0AE
311
DB43F92F1B2AACDF5FEC8ADBAF9F814E2027003BA2F9E144B1938A7A04050AE5D953B82C45619165C813A10E76DD6906B3C16438064D14CDA713AEC420034613E1AC7241904A49FBF87409AFB1FCB9B72FE7933A87D8FBEDACECE4EDCF6A4FE9FB94D5DEB74FAB7CFEAE17EE965DF980DCCA2D04134994F9A2E94D2265DA4F
311
E6AA7B7AC15FACAC2B5ABBCD7DFF542C5314FDAB2E1B9D8B65220B8E2B638BE008E8DCA22678C820C5053664D15E89F2D735B51A84955E81A443545E9FF787BE0FA700A76D136C27DA179A7C6E8939E01BE756E19CB292798063D8B97F44E8A27BCF3A614FEB8BE974A718E86F7EC99B53CA35FA24F61F2B07266684623A3D
311
4CF073E511F3A10A8FDAFAF0078C577F4DF9D339FE7862E5FA47CF4344209E5BF76D783B1B48E152AD281B15FCB934DCDA49CEC5706B1EE8B460F435324A5CAD154725E21AB8044B75A557A79F6C807B9340AA3D92503E866F4274412926C8C504E4D5EF8C0E68DD0B028781A6B4054F11CF18941F101C57CCC796773ABC8D
311
ED9CD91FE5788806C05E548895354AEAC96546D55B0E94A59F148D061F42AA398D822CDECA4CDE79E13469BDCC44FDC990F366BA5978C15F97ED80CBFD73B0CD9B8B83A4F6845BDFBFAF034019473FB9A63BD55D3A4A7284757071574029A4D016DCCBE95DD679EF3C4880BF169422F8C89B68A988D2B13793CAED4F74DE74
311
86C72DC94DF46B8E93D8E02EFCB1FF9B3BA10C8AE7F653DF94F4AF466CDDCEF5776687F7C4C14B63E4EED1719DC2EC482D7DBCC7AE518CDE3D5FF86D39000EC3673C0044E1D308BF05F74D1B5F033A7D1BE7F74BC55BBE3E4A20F920946CA0271EB17BD2B80E5660ACB8A29A79F5E4BBA49D4D945B6EEF4A7EFEAA65E5555B
311
BB57A7E15D2F83C69F30BBB978D2B39F1F26FC097424D39BB33CA3D87ABF64E307938B685BAD44F71556A30B7E712CA4FE600613C3E554B69ADE949A7CFE214DF1FFF05CB82151EC6FC31950239F94CF7AD39DC473F6EA356E5EC2C4EFA04383CEFE985A127484366FBEE3C0EC4FEA363E4F6632AE781392FD45D67B63FB8D
311
F70E82734F431FD3443172A0E30A83D60982D55FA6A2CF86DBA8382502ACC6CDEF3B907982EED1160E14863FA242F9757347E1544275CCDCF71ECD5F8621CBEA326B8BA884AD7F825781923E66971F04010D574C541D8427A438A37EEF8AF88240EED7362C953F5A81DE2D56109CDE2524EA0F5D2F87308C0C47BD97AD6058
311
78AB8589E17CA83930CB5E0DCCD75853D68B1AB136594926DE426C367428E9334AFAFF90ECE221BB5DC9E5BB53D2CDEF954EAA9CD814F0E5725F1965DD458E5F8487683AD86B9D0076BE3EE91EB1CECC5331A67A3F79D8B27587C12EC2A6A70474749F27B4C0BBAFB94B34189E88DC18964BE4121B9137FD516C7755356E50
311
D6714E31ACD222621EBBCD1CFF81D87479056A9DA0E0B8EA19D24CF937DA89F78E8650CCBDC110AAB6C4E46DCBFD0446BA9E2060E81F314AC2031E88135E5476AC0160EF5C0DD2EEF1B8B5CB2D198BE9A554A9093B5F7D7E4B5407DDFCA1D9C152FD97F55BFFFDFE802954DFEC8995B983E28AC92F1971E28F531DC407A128
311
0EB125F64A72E617EFB27DFBCEDCDA2D6F2BDADA36873EE46B9BE1782998C63DA7182BC383FB6FD15DA472B175D7E8B4FC88F38D6E07FEAA3FA3CBB8F6B449ECF14D2175E5C5CCA3A42ABF24CA6C9395AF74535F4DDB38CB84F56614B0FD32D7E19CA5CF988DB4449C40E23DF2B16772594554579094450F56F253CD25EA7F
311
77366FB1CFE79696C428BB64D5A41E986189427E5E4D7E2DAE3D5BB4972B3DC44EAABDDDD63A2264ECFA5C786EB0EE1FDC5BE34FA0F08376869FD1E61EA06CAE15191135445EE8F0394161C3266A596AA035572BB0C8876180D8B9C77D307DF9DCDF7365ABDA6F3A2366436457A4DFC1F259666569A9E4A79C817BDD5610E5
311
200FCE894A358EC72858D50EF67545DA81C6FACE3D457BAF70367E1E6BDD9A952FB4F56247F58F523B97E640246051A72F79BE42FFA0B3187F63097F91C48B868586F714B0EBD5A00A8412C1236E1298F60C72BE6C96B82B404CADAA304AE9F303176B14BA53FBC2D5E86377E35542019E24D97B96A49B2C0E5006E7795954
311
DEAF5DA58958839043C6C70BD3B1B33B6DC5C31316D8A6923F142E26F6711A2258AF977DDF1F970ECC4F1F2B434B96D81BEB6E89BF3BBB3C7C8CC80505070723D6D7D7D3C8CA27CA164A26024FED94B12A86031867241DA53D929636DA600F050BC40CE48B8BA03D69224720DEE2ED2127390BDF5E6EA64527BBD4C4C63FA7
311
6BB801FEEC0E61218EC98A8A86CD8313781617877E66692839B9468CF4DB8E50A73986E558E309C0D6F676F921BE02F1185454DC75B111572FF9D27D85EA14C05AD7271225B391C4275659CA4A43759D0BA44639BE4C30A84DB7F67A41399FB95CBF923B1B1672ABC807C1590557FB18D811983FA97F5E609516D62281D38B
311
1281F68FC75528C35E4CD7DF0F7DBB5E5DD69C414EBEA2F4A5B241B996BA77AE6C772E367408C633EA3E438B68563EA8BE7667F3A4C4FDEEA52ABD78A2820F443B7914A15F180018D231E64519C56A12F6CA7C8DAE18F06F6B769DBF92329EF6A5D18FBCE600F36BD8E8198DE5CDAA96181F3A756EBA5501CEE58F497EA4F4
311
18A2B82565B9BCC611713C0B708CCA1F398B78C5F7D03B3437CC18F13061F55C7BEDADD5ACB1DB0E36D3CE47FF6EA1A563A57E9649EA5D14D1A50EAA457463381C073777EF1600607BAF6428A7DDC079D47A204EF1E1F1F0589FB054D45E02CE623B3823C317C601E589E22B1E88B448524B86A82828E32345EC18AE17214B
311
42F8C41C6D428016D9BA31DDCB47572561E5A402E5BA4FCE55F78AF7268524AA04130F3A20BA5D1E9F9948EA48FC8F5314FDB35E21898198060034ACE5E3E2BBCA34092518F275190AF65F45867FF0900AA4B81F25427414C372BF51DC29AA855C5428EE1EEDD6B849AD60F6E73475C2D2523F8A2772C840A478DED18A8C5C
311
91B085F255DC4F54EA7AA8947354FD17ECF8FB3B4A0DE7B483CAF3A1165EE05BBA413E5C1FEF3DE1D6B8F2F3F3251C17D9FCAB48A9AAF63AC773A0E413BBC46A9ADF84A566FC920E4D8C52C9769EE3301CADEEEDD92B312E02E2A7E35B7F1E7D203FE5A7D75578B06E99D0E46FFADB8FDA17ED8880390DA29094202D6F645F
311
76F6F96409CDA05495A96E84B04A00D1A6C6C81D7F3DE9376E828CCF144EE50E364ACCE7237EA0BFB5607ED1AC3CFE73794E5B61739D14DF1743441B1AC98F00ECEDE9E7301FA29755FBEFA68C91EF2B314CF510537EF1ABFC9A762496280B546F5EDAAF8A5B387D469FC9A878A92828C88608453ACEC6094DCA54111E7AD5
311
B2663DFE2DD151B7F123B9F4FEF8EE36AB125FD7AD52A59B1B765B3E3F73E3F73DEA93875004D2AFFE3CDE9493B87A9904DD052028949041A91DC0E1BA47BA714343FD5B25E0A6A09503AFC17C790058A836A324FE31D7893512E28230332F153181C1E018E1124EBE1BA262AA428A518237D1EA7275E48C5C561BD19ED691
311
2EDD8367DA0F31E40EEAE9683DA9257525AEA7B632B97119E17145A90231768A4F3B9120FF32E8319B015E3CBE26F1A754177D8185345817C096B0CE443A955D13AC15E1FB5DEEA0239EC32A3C92241A237B0B02FFCB4F93CF2B02570C8D192E2F2A68CEEB42F12E6F8CEEFF46C251E22B4341C56FB08CCE550E7A9D6F4D65
311
64B9EA52A83D5BF2C6E03FA19D2775E15A8A7ACF30A13C259EE7F5EF2AC3BA354F1500E1A07FC63FB4686E2F12EC69719F9ECF5FE3F35598DF2CE944008CE78F0911BA5BE5D0A34E0098FF038669C26030BA9B300303039852A8F6F496341737CA7E0D2E3AAA36DE0A70AA7D9CA0D54D9AD84B18A44C9E625475E1C97B93BE
311
BB38DCE7D227E67A2D00F531436136355F243D1FC0D712C5765754FA22FCFFAE97919161F46D6E61ACB37D83777B385889770B50765B127768443A5C4D3A4E35A3151111F146B7CA116F918A049F1C272F2CD7976C69A0068773451659A97E0F4A08FE604C3FF6CE7385DB19F4D3ABC8A0D80DA8A42096AC377DB49382B36E
311
270B6FA7570188B4B7D1DDDDA82ACA487CCA5D38BD3BD039ADBAFA4ACFF27809239B722081E2EB9F145320553D183F28471C388BC8814E5045676767AB58A8E72D1CED2CA731379515D2E533E4CF0B39DFC625F97AC4836831A4DE330E87A8126FA17EBE583D614E71E22A8DBF2825599743E0640037303E8E1B1E8EA4E1AB
311
FA4F62907B5E4E0E5DCFDAB417C36C6848A2B8D15F1E505434C0707E16B1CFC2A1C36A42BBF55734F8F4301DDC2A5110CEE8C0747F69519265012A2174BF4E955ECD4FDE095A3ABC70536B7AD0B9D7892F81287D667C108703C9B66A221E9A0929D030008F77FF6F5D2108EF5706FC87A3069B976F7C9FC3239D13D283CDEA
311
83597461079FEEE049B0F392889898B7D87D31F8D60ED7B56B91823A8E4EDDB36C6172ECEE42BD42B12CD67994FA0F0DFAE9389356F4CD4425A4B8AA55CBF7ECD585C6A2C2316791E43D5C06841ADBB226A87FD61515FFBB0167B74E56BD7F3E90A57A97FEDCBDF483A0D6699A8C0849CAEB4947FAA90D8E332D9DEBD9F473
311
8C37DA0CAF9CF3DAA68BCB67C420459C7A64498D6E848E5CADE92BB6901F607AA331104A67F7CD650EE169B1DAE94D2C31C2F993632259B6957E246EFE4C5481107B07118607700040E5812A2A2A38DA0076875258C753F60E0F2662C748EDD5F3F3686B8FC3BD6FE631ECCAA1E8B1C1E565AD117E54893E79F4672E32F9E4
311
6B2A183DFDCF3EECB4D4D077DBEA0DA254D256045109670050129E9B9B1A9E4A11344D61497A992778095151510C4BB7EF2009B63AA4360635312E4CF668B7E0D3D85A8688E2BD83B569439892ADB63461930D428E0DE42E4AC57CE48DA5CC1449530D8BD3D6A0F08DF20C8E8F570F2CFFFCEA286E30969B4654D498A58D9D
311
A782E19FE3F002181838925592C4A1EF0B332D88B61A92C644547BED490D3A42CFFAB70E36D961F694F6307F72FF15A1C79D5B1B5CEFD353D9E2B52566DEC8F8F09CB3E8359C0F68EBBB7898243E34E12A015B2685AB303C04D3A9E00671FF3DFF0A184E4A2ABEB2B666AF5B3A209C73D8EF29DCDB069C9F391EEE9DD0F74C
311
7BCDE16F8F02E3B8816122BBEB50665775B600549D8BB33A54A6BF940C028118BC6878C79958D6784F9DEAA6E26748386FFAF8D0D0101E2847B6563F5D8DC1D78F787BE00E2C941AE12148D4A81599FE8F68D4DA5CDED75530ADE138240300EE13B0FC13A1687FED6774662C05A2B7DFB186732F0D7A93545D8B0A6390AE50
311
54D9CB582DA846D7A061B3358B45E2B52DDE63E114397EDB7E09233A579155D795BE76102CF277F4DF8B188C4F2879BEAE3C08347124BF9ED23B128259FE107D31E34A652F090B30B39E0D9AF917B76A2806135621A8A60681F16AF216514BBD02711585B5B1AE823F4B2D0369EA5B6BCB863072727FFC871CA6C9AB79A814
311
D989057E9470A3D238BC87CBB4A0EA49AFE2B86F22E499793CAA9047080450166BDC357524561E258C77CB697F1ABB32562CF87C3B7AA12F911EF19FB3E5C02222E887D08202A60A17151F5E053A86B437771088B4FEE14D652C43E8D939995D34545E12E2FF93D4E366EAD25F10CB7DED141563C3D0C447AF06078A91135F
311
D4B9611583CB4BF3BD167F2399CEAB0E0100F8FFC305F00F1711717173138B4B48C83022295DE657EFEDD97F238ECA80F528AFB4F8D67AD4E2594B9A3AA86D7487EFC313BA95745C186F0CDD84CC12DC9CB0424B42203D351FD9C0A3AF10CC7F388E0329279087386421F194F4A29464C1DEF7EF8BE515E4A199DCD5B90934
311
2598D8FE6A231F71336248D5CEC5454455C7BE383B3BC7B260FED27F703FDC39A170F3827239102F59D4DEE7FEF82EAA1A5E4BA94DCC4CC44E7E2EDE20F24244E4454369D2E87C3F823F193FD4FD27E1C23984B01898D15ABC20711A8A558054951A6AE280096BA36CBA439603B7B0B4C45F248C14B2383B4B5CD8ECECE4FF
311
859AD4A6CA2326D020EF090F4041D28DB66E5256B56232CC52829DE8060BAE6BBF37D4B7469B822454FE93210A3E8D15E69FFCF01123222611C51C4FD0A041A0CFA2471CF6BE38D2B20FA4C3525B5B8B586759475CF80ADFE67A284AC24651E52B8E683D24C2622642F27E7C3C22783BCF63648BC398BD6CD0D9C97E7E7E3E
311
ACB6126DB7A6C1FD9F1031302EE67ED96F22B77C7CA0239BB324207559B105E4693EB26EC46182A92C9C0DBD24F29B31C5C5AC1F84300E0E17CEEAC15F5736FA4A98971E2F1423BFCD68D4BBD5F86E74B40A369F39507C88FCDB35D2DD8DEBEA4AF999E23CF2816D204200DF6E611781B9884C1AC8888B4DE3973204729594
311
34323A5A36B22A8E1F721A270DF3BD65E4A31C11FF048AFB0D8B7B6881423793963A23CFCE935FC189ED36FAE35C46DA3574C979E4394BE52084F3081837BE033396D2EBD80F1F691B273F660D2B32FA27A33B1DE4ADA5F0FA4651511102DFA410DDA86E065272CA314D5249DF91B06BB92807B28EFD54F08F7B525252782C
311
D276DD02E6B0319B13DF87B1F6361AD6B28FC0D711CF445429B9E5A433CD493051C49A9E03DDB1B147D880253514A5DED88009018620EE229101C041950E2D8AA8E1F5F5438E0C0C0C60EEDEE9E3E0C051948C69F84BB7B2A48A1F3C8EB9E6864687F4F4F6F6E2FA87608ADAF9C5E117B7C1A737E710769DA1D15ECE6A8450
311
2AA855398712D5FB51BE92E4EF824969CE18278798AC303C2C7980DD2500ADF8FB1E6D6C2FAAFF9987178923334A244758BAA01A9A1B70FA5097D01E1CC2A58DAD0EC94CE6430AA9B0C10D75E3C6BAC670EFBADEE1607739CE0FC18A2587E3EC3058562014C64219C69BC269082D5C2F4A659278D585755912176D78A1B641
311
719C2A394CED495A1AC5D583FD2F5EDD93308EA7EAE8A6DD396598BDBD3D4CFED62D18A5BDFDE0DD5C80D1A89BA62697B131AE7CE9A6594138582F1B37D68F1749AC7CB67A70695D48A4A056AC1FBD4E82358CEAE38F54B95A9016F9000F9879C0D9D131768635CA798895F27D6F1614F11F2838A83611AA51C9A3DDB539D4
311
2979C29F10465655C17BEC3E2760B80DCBF609198C7B171A531905F3EC218D696025975E986C6B4C666666787271F202805577DD5A3EF0CAFAF91B62DC4B2DB4217A7606282F31D8DDBC290593BAA93EA6353AFA9939B877978481E15CFC9F2755CDC00C538F63A4BA3E80AE009B73CA0185687D339A507D165B74290D6EE4
311
6D5C58148F020C3668ABE9EF2F7549170DC80DB41FFC1D678FF19AEB10C7133832B104B80F691B3138F97A92D26E551F1F110400D45AC71A9B9AC41A1A1B1DAEED0B0810638EFFB511D46B121C6FEA0F38CD00E03CFFEB9713FE1F9C263E4DDEC160D0497FA9A132BA608584057FB15380825DE6C7FC3C667EE947D488A098
311
98D8E939C4953BF4EC9836344D2CC6B2971B2A21A572B06096F4982D2CC7232D46E8EA69DC83722E267754D777F97F96D5DA74E1E75178084D0E70F12AD33E5F71EF2AFA599B2BEBF60A5BE475F444F240CBFE8143C334E7ED9150FEEFEF7EB020C4DBED388DD1D6A167A76F3CBF119B578AE8CFA7736ACAFA4440A1C47185
311
638A0D2F3EB5BDDEFDA958FB13CE4AA4923D5BF840392D45544329525749734866684BF7F8D9D54D892E19BCA9F829A0F8BFCBEEA6CFDFC61D74EA1A645ED7A1FF241739F15694BD835B66FEC5677E40FE69BD3F91AE402F036537218A401CB0828604AD189E575015C6F3F6BBC8AC79CF6C70653847254B31551EFCBEB597
311
8B9DB85D58D0FA41A9DFE9C624834AA04949D24B5AE6D299E072D152D12097920F14AA92C31C3B97E28B6C2E6E9C23D63043ECBBC0A60FDF5BD0C33C127EA8A3308B8B6AFFEB28B4455BF6E7AF4FC6222728357EB8E46E85053E6A8843AB23295BF838ABDA94658FEF3F832F147046B4ACD6F7D48E8FCC9618582961C898D1
311
C7A253C91BFECBDA6BA18A1FCF70755DCCEE2222F41B76D23CA98D0CB3D95F0CF66D57FFF65E2A90F5DF40FC3187621E981BD0BC1D992787212688976B94A8F0C6EF646624B570B78E068826F87CE27041A95C9A4871FF65CC17FCB1639629AD6A9517000D63AC231F3D741CB8430777E7ECF80CE7A3F73C0F162F7E56AA71
311
F4DA80A33CD6ACEE78E2C11FAC03DAFCE929B106F8F6B3ED2DC71FF994BD9CEF4E9A94896EF1B6E2B7B4978168BCF0847A3D2A4F1B0500B926E634B174548E9FBAD27153FB5FC36799B1E6C7C38A94E1F9E996796D7B485E635D5287A2AE76FBD11A341DB3F8F810385BB7296391973DC6C37C452A9305AEBBE0CDB6C566DB
311
59FE60C8E94B1FD090354BF51439FFD1B48D725228FFA88C84F686F547107A7A235665A4593B7C34D748C1AC8D56DD5DA861EEFBADDECBBD65117E65851F90351AEB65F0EFCFF4BCFEF24CB7A5879699FAC437A7AF9099186CF006BB923A59E37D7A36A29FD8D2CBB914A5E9D0A8FD212FBF796AE9A67958FF1D5D8B85F78F
311
96219D4714EB919929241B6C018AAE0C02069F8D919961EC5DDFBFB7573E3AC8E08BFB7C8534BE6DE045B3CD63DBD71F7638BA2309CAE398EA3A7D8F98BBBC7AEB367EFA5CFA27A9F8F2F52FE878058E6209C026453F8E7E8A237DFC389E9590F6059B397CFD65183BBF936E86896612A5B5FEE49DAC8455D026218AFEBEC1
311
2B3523A45B57B82C9C97E02ACFA1184DB18E48CF615DBF39C3CC6F0B4AE6BBEEA2E39D944E290302FA3DE33FA7E40296E2EF7BF1CD855BBECFAD0FD622BEE9746FC4FDFDE545AE6E3BC234CADF83A0FB76DFB145BF3828AE3436368AC24989454F8FF70A177672C711CAA1A76107218CF948CA01F873520E7A2B118EBB161A
311
BAD432932029628B6761590C98AB590C8C8C79798CE9F715BA696E839E9131A4BB68BE923F1747FBFF165331FFDD4D05997ACD168F12CA75348DAC04C7F509FE83898A8B421181AF492861CE81E4A2DD0A30850CFA95E05F097FF70F9E777310D584A75BA7018922E271DAB1D785671157685B7D383D3E074DDB4F1E44EF04
311
B07BAAC75A062077C54B9752C738C9D804D402E02851F3F89605AF189738C18C021D2139EAF72513824E10DDD3047BACC8521ED7E98B257D1166903B1B08FA6F918FD7E162913FEC7D0EF4787E29C35FBA8C6E2C9C20E9AB30AE42CA2A01A090E7D010C1B5BF9CEE2A304BF3A987FB40D836979B79E18D70F257DA61E80847
311
2DD85B82761825779D6B90CAEB0F23360C6F80A7D7D77545E95B3DFF0CF96A827F9B5BCECD2C9698718417EF80FEEDEE938AFF55859D0D540B7FE09435583A6F04874A0C7E8CF234DF4879722000167F5872CEC6BF3EF7E5A8CC8121E6A359227C8A29C95212F9F735BC72A887D56B8F309FC525BFB4FD767AAEC4AEFF249C
311
FBBD2DE1AB9969A6155C7D8DABC307E47324C1F916C7BCFF40ABA5644E9FFB9238D19ADADA49D9610F01ABBA57E4DFCBDCCBB2B93C8953206C91DE01B0E2651A6D6C31721915B31F7B7CBCE55466F6D70402788FA91D73BE4ADCBA99A35F17D6B83383704917D6833F0FA3CD45C926ADB8BC17999A4A0AFBCE2541F7B8CF4C
311
2F5FBA611B3E626D64407CB32C122DFF4EF8674D6EDBB86C8F7C6A16D50FA685E2CCA34F8F7D1D8265BB0042E9D7F1F666F7BE5FAA5184DF58E12122A42EF02F461B3F369AC746F96528AD208512AB56844CF75B97F352DF7995024FB02855385854F3798670D01CAC771AC3E1889EC25F61A20C1F8CAB46898817F9C47E2C
311
DA1F286BF2F358298709FE567C91133E2638C8B53975E753EA8BFD3578B5F7186B7BF084EBA3F77BAC3132A5779902EC22AF2D2E79F42D324E083386DAEE9810D1B44A5DAA54513C7A71E52A4AB9257D975B621308FE4D2141CC3DCFE946C154A3C1DFCCA7629EC69ACFA831634ADDA93C0388D2A9A2DDAFCF957C6995BCE7
311
FBB6DC4EBAE79E63EB08E9A25F52F67076F7093CA545CA3053B5BF576DEAD4E0017143C5F759F32B2D6F145B52B67B48909B7C7FCA6586EE385A2189C16932CB6DDFD9152AE317C430492A578ED27B72D85D40C7C93C097939E1B50F4D67F05334FE9DC362C30B7FF561B95259138ECFD9274C8D695C31B14D4EAA9F3D7FA8
311
DDF652F8C5DEFA23284C799B7D94416DEE81E05A866302DC70192A5368EA65E1CED8BF107A1E2D3119A71E85DC1A7B0C1E93274CE04DD0F2ABC8AC7C987FDB002B6F81757B43502EF7A0D92E416494FAEEA4C9C090CD9557AA4D532F4996A272B94355C5A0E4974EEA9627476F30809B94D8D8D860062E02204643BEC7D043
311
8AF800FC7E2B26955D595421E83C69E1A07E0E3122285835F014AD538188CF9737CE76D464A353FA55A001AB2526B84E985083693BC76FE211CA1D000679C889E3C009832C87E1AC2EDD05C302557422DF0800E316FCAC86978A371F025A6C7DAA9F333E7BD160403A1A06EA75AA9888FF01504B0304140006080800165984
311
4D28BB58AF800100009E0500003D00000032333736323939352D303134392D343045452D413744312D3230393137443441393836372F536368656D61732F436F6D6D6F6E536368656D612E786D6CBD544D4FC23018BEFB2B96DE15493C78601010A34B880709DEDFB52FD0D8B54BD70DF6EFED3AC0B12E6442E2716BFB3CEF
311
F3D18E26FB440405EA8C2B1992E1C323095052C5B8DC842437EBFB673219DF8DA659866649B798C078B48AE6410122242F2A4994AC7F93815DF85C049C8564CA0A901499DD886B2EB9B1E02448F358701A9235880C49A0119892A20C89D1B9FD768815CAD268CB5E0355B40B1E47F3E37A2020464BED06AA57CE8FCC20C3C3
311
446D46761A2632A8C1283D07031EFF2AE7CCB1BFEEE916E406DFAC8E36FFD99A9D60A6944090EEDC3B670C7DC13DE86B6B2C5C240D6E503BB85ACD579D513F1B9F9A69DC9CC22AFA80C426D40AF0B21EA168559156B6276F0F726A6BFF04DCD513A87A62CAD41FB24FCB2858B3952E3D852084DA25B9303C15687973CC8E8A
311
AE11DF2836C38C6A9E765E8C1BA1BFB1DC29CDFE518C8B5A7655A4ED7E77291ABEB80DBD82EC866ADE1B8D05AF9E35CF09D7A061F38A986D9EC412B8F0F65E5D81534D9B231D1E5A8FE577A241F3A5FD01504B03041400060808001659844D2CCEBD668A040000E01200003E00000032333736323939352D303134392D3430
311
45452D413744312D3230393137443441393836372F536368656D61732F47656E65726963536368656D612E786D6CD5586D6FDB380CFE7EBF42F0F7A649B70E1B90744856B4970F450FCD7A5F05459613EDE4174872DADCAF3F522F8ED3B88D2F1D06AC4050DBA2493EE4438AF2F8EB73AEC8466823CB62928C06C384888297
311
A92C5693A4B6D9D9E7E4EBD51FE3A931C22EF85AE4EC6AFC38BF261BA626C9AD288496DC3F4FCEAFC63366845F7A10452AF41DB320C0D44EC26EAB20918735565582695670811A6A49643A49A6E9069FA4604A64B29016DC4B48552F95E4932463CA888468C1D2B250DB4962750DF7CE273069CE8363F1FF4EDB00E0A21999
311
574AE4A2B00C353B93F3BD4777B8A61ED8F604ABFEDD79CE56A2B7BDFBDBC50996E0ADDE16FED26223C5D30956C29BDF4A55EA686E5E58B112DA45CE67F76F4FA27EFA3FB672FD7372FC388FAECDCA5209E693CAD167BADCD272F943701B3812F8A3D852008B1D2E32DB927B2F833C6EA95879925356D254582695095A3CE9
311
82924720BE5774A3CB9CDCDB350427D2DF20DA1B5532EBE2D5D6288D75D4F7E4FD9890A0EF8E3D93EBB8F8BA4758158EF6FB90A6F9520281C93DE7AAC6D24607DA296BB96018123F821A7D6A5C5884050C475DA4865442732C8B95684A50165CBB3A32F25F783A4A480ED59AD7F924B968AEA50131F46303223E6A397B0E52
311
976030DC1DCA81D7E7C1EDEEA42C19FF27635C505E2BD5198A599020DF50A2330FCB3AAF28CB0124108429553EF1B228802E2265D8F7CC2401042B155BCC7070F1E5C55F13B4A9577362CCCE46C32174E010C3C378C44841A4BDA00FE3A12006CE11EE6AEC59894D3526DDE1CD59D503ECC324017F8061B7F162162FA62EDD
311
81AE3308617770796DCBDAD2B2625C5AE8A63DE20B2C8AA5E95E76E5730823955956E33E705425A2187C185D36489A1B44D3DCEC2172F6BA2105C3546287A7194B2331768EBBE64F6E70A9930ABE0ADEA89E9E2C38523B810287AD67A54A039C1606EAFE68F8304610BB9093DBDDABC0B2AE4E290DCDA15376D7E39F72B556
311
F0B32EAB5D3D498B4C41ABADEC3A1434C422D87E8025A84BDCB2B1417ED750FAE4DA8976863974C577C7F902D3F156AD354DEA3540DE6BEAE2BEA52F7A2EB4CA43802ECE5BF2CE2EDC9347179FFB023CE412E60BE16DA0BE29B374988A553F561DC04615DD35F7D2C8979F60E5955CE93DF29DED8AFA1EE6642D53418086C0
311
3C47C377910F75F7E8F5EF665F70B60FFB22AEDF897D119E8423C773E819A3C1E55E550599EE6EDCA34D0C86FD72057DF2CD46F16A470682471C164E4346D5306BF12D7D12D82CFF673D41636C347443FEB51B50D72EA171A8E4A58623A4A16E0FA2B8B10A0D23268D87C33896EE8FB73305A74BF224EDBADFA0BD674AB354
311
D63DB7BD5D83426761C077DE767728235446A552754EB93B755891C3C4CC6CADE37CF0E912A7BB38DBA010F9DE1282EDF470CA69A9CDA482E334C4A6EA4107987980B17E72F31730EBF88BBD39E7C629F56797A3C0009C2C5AE7951D9A05A02773440F02EEB4DE396A3B6A570C72CCFBCD823B0B8ED3F1D5CEDDFED772FA70
311
236C83FB7D86C385D570B87107535572A60A96035F8F7C6A7192F13007246BBE0521855E6AC46F3E27689CEE7D186A6FD679D98CDCAD13333E04EBE7ED6F55FF01504B03041400060808001659844D6180134D5F0100006B0300004500000032333736323939352D303134392D343045452D413744312D3230393137443441
311
393836372F536368656D61732F52656E6465724D6174657269616C536368656D612E786D6CA5934D6FC2300C86EFFB1551EEE343DBA41D1A103009551ADAD40EAE28A4A68D9426284961FCFBE5A340113B2071746D3F765EBF4DC6BFB5407BD0862B49F0B037C0082453059725C18DDD3EBFE3F1E829991803366715D47494
311
2CD30FB4A782E00C64017A412D684E454CE3FE28995203B162A6EA5AC94B66997D225E109CD63B0135484BAD1B3C07E9080CA35DB3119C11BCA5C200461A68A1A438126C75E3E230D40FF81FB3F03C91D1E3A3A0AF79FE28E25BC39EC3E17E4C2A2D94A0833A51AF55BCCA7D88572FCBAC529C4140B020FC3AAFA886621DCE
311
D7EAD7664CC86024E806DC297DA1BB393E4156543457A4537DB8817349A70F8ACBF09B3EEE2CB2F33E91B65D60786E4E3B39B77E3FEEEF5650424525DA657FB8B46BE6BF064646F0A0F7327C0BC1BC1B4CBBC1C419FA3CCB23500007872A2580CAAE5461865565294E4EDB4617B62FF579DF9A5B2F54E834076A597573A020
311
912FED777F9B3F504B03041400060808001659844D83CD623051000000570000004700000032333736323939352D303134392D343045452D413744312D3230393137443441393836372F4173736574446174612F41737365745461626C654F66436F6E74656E74732E62696E536160607031363773727371D575327132D735
311
313330D2B570B674D63537777175753535773536301202AACB4D2C492DCA4CCC492C28484D2C4ACC4B4E050A82012F90744FCD03CA26072767A4E6260200504B03041400060808001659844DF865834058000000680000004500000032333736323939352D303134392D343045452D413744312D3230393137443441393836
311
372F4173736574446174612F53747265616D56657273696F6E5461626C652E696E66558CBD0A80300C06F73E4B117FB66E451741D041DC5BF98480A492E4FDD18EAEC7DD4555D89EF28DF51A0B1BD8340C4DE7DD848B988C0ACF0649566493F2408C508DDEBB99D5129FF8F1AF8CF5B9503E20FAE5A16B5AF702504B030414
311
00060808001659844D7C9EBE24340100009A0400003600000032333736323939352D303134392D343045452D413744312D3230393137443441393836372F4173736574446174612F636E782E786D6CCD94316FC3201085FF8AC56EB0A30C518489AA76C9D44A8D3A74BBE0738282C18273D5FEFB82EDA155AA4E19B21EEF8E
311
C727DEC9DD676F8B0F0CD178D7B09A57AC40A77D6BDCA9612375E586153B2583F7F443C60A073D362C979992A7E0C76129B5D8C16873D51A77598A0F31221DE068F1B97BF48ED0516485B61063C3A23E630F1C46F22DC60B6F8180D73C60F463D0982691E97199A4030261CBD4AAAA3765BD2AABF5A1AEB7D566BB5EBF4B91
311
954A1EBDB78BDEA4CB821F0A3DDFCA5425453E56720C66D1E4B730F597477E344E8AA4543252484C960EFA1A52070C83351A28A1135E1352994408BD14B358499119FC22F1849D7126B7EC9331201F5E923D0C64F0EE88FCE7F5F664F62E12388DF7CBE3DAE1ED29BC4E3FE86D0EE494987BCBC9B5436E5C77839488698DA4
311
D0E4ADA2BE01504B03041400060808001659844D36FA3E2DE30000005E0100006700000032333736323939352D303134392D343045452D413744312D3230393137443441393836372F5265736F75726365732F44333736424644452D423442372D343630322D384339432D3737444545453537453330322F7468756D626E61
311
696C2F302F636E782E786D6C4D90C16EC4200C447F05714F08AB1CA215617F624FBD5414BC295A821198AAFDFB42CB614FB6669E2CCFA8DBF719D817E4E231EE5CCE0B67102D3A1F8F9D577A4C1B6737AD3222BD609C4573C2CEBBCCB53A32D63424070F534357838FCF211E10217BFB9EE2C1990DA6949D17FB09A7994D25
311
74509EB333646639672858B3857680FC09E380CD60081CD797456E93BC4CCB7A97F2BA6CD7757D53A2935A7D2086C1FB489031318B6D89ED9B45896E6B55B31F4C8FC0F5CB6B4A3453AB42B9A51F10FDA406999482B7865A49022D014D0D02732AF10F6B257ADA36FEAA68B337A37F01504B03041400060808001659844DA2
311
33C2345D000000800000006500000032333736323939352D303134392D343045452D413744312D3230393137443441393836372F5265736F75726365732F44333736424644452D423442372D343630322D384339432D3737444545453537453330322F7468756D626E61696C2F636E782E786D6C4D8B490E80201004BF42E6
311
EE76F3C0F216234B883063108CCF170C074F95AE5473F5C4C06E932E4F28601967600677D21E9D8092EDB002539227A2FCCB80E1168D80A6417297A89C5D6963B7129A0D1E8F2EE73AA7B62BBEB8B27DE50B504B03041400060808001659844DBE89762363000000880000005B00000032333736323939352D303134392D34
311
3045452D413744312D3230393137443441393836372F5265736F75726365732F44333736424644452D423442372D343630322D384339432D3737444545453537453330322F636E782E786D6C4DCC3B0E80201004D0AB90EDFD75167CCE820A4A845D83603CBE602CAC26799919AEEEE0D965E2E908050C6D0FCCE04C8BC355
311
404EB6198129C92351FAD580A10E464065907C8D948F8F166375F655BDC3FDC3B4E530A176BE7057BDC43B2A593FE403504B03041400060808001659844D8442B4E17E000000A30000003600000032333736323939352D303134392D343045452D413744312D3230393137443441393836372F5265736F75726365732F636E
311
782E786D6C4D8CD10E822018465F85FDF714A9896D801B42EFE1121D13A191B41E3F685E74F56D67DF39ACFF6C0EBD4D7CD9E0395C4E0490F18F3059BF7048FB8C3B40BD603184FDEF06C88F9BE1503008B6C4909E079ACC3C2657A8B37E3DA0AA692BEF4A63D9488A9B9654B81B6E03A65469ADAF54D7A4CAC6B928797EBD
311
BC252FBE504B03041400060808001659844DEAF0476E080100004F0300003400000032333736323939352D303134392D343045452D413744312D3230393137443441393836372F536368656D61732F636E782E786D6CCD93316FC3201085FF8AC56E63471EAC08932143A72E6DA76E142E290A70D60155FBEF0BAE8744EAD6
311
0ED9E0F109BDF738C4E1D3BBE603285A0C331BBA9E3510341A1BCE33CBE9D44EAC39484188E90A634D501E66566526C599302F9B64E0A4B2ABAAB3E1B28947F41EC3B37E07AF58A39D8A716671DD762A2734102F9D5149754347103193867243B21EB61B34814A6098DCF5C3D40EBBB61F5F8661DF4FFB717C15BC9252BC21
311
BA8DB72101E1D2682C8B50ECF482D7632932D98DA91998BCF6D69536042F84143151E96023D3D75248B52CCE6A954A557C057F1829788D7A13F8010290D5F799F8C6DCBF457E8260801ECB2B9155EE3E93FFE6F16F05F075F6CB08D4AF20BF01504B03041400060808001659844DE3603EBE7A000000C20000002C00000032
311
333736323939352D303134392D343045452D413744312D3230393137443441393836372F636E782E786D6C6DCD410EC2201085E1AB90D9DBEACE05D09878023D01A1D34A8419C380F1F82DA68B9AB8FDFEC93C3D7C52546FCC12980C9CBA232824CF63A0D9402DD3E10C6AB03A3397DD192872090D3406ABE7CCF5B5D18893
311
ABB1690CF4DCF02282E5EA8A5BB96FFE536F285CB347F95BEFFE81C9ED5AFF9D5B1FB575BB00504B03041400060808001659844D3F68252D7D000000A300000007000000636E782E786D6C4D8CD10A832018465F45FE7B37752E13D408EA416259C84CC3E5D8E34F4717BBFAE0F09DA3BACFE6D1DBA6978B4103BD1040363C
311
E2ECC2AA211F0B6E017546A5188FBF1BA0306D5643C560D49A62DE4F34DB65CABE52EFC2F384EC261A26E51D13CA25E6641C712F068A1991540CBC976D238A71AD4A995FAF6CCD9B2F504B03041400060808001659844DCA1DF9C9A900000073010000130000005B436F6E74656E745F54797065735D2E786D6CA590410EC2
311
300C04BF12E5DEBA70400835E500FC800F84E0B411AD13252E2ABF27A55740421CEDDDD9B55CEFA7A117778CC979527255565220197F75D42A39B22DB652EC9BFAFC089844F65252B2630E3B80643A1C742A7D40CA8AF571D09CC7D842D0E6A65B8475556DC07862242E78CE904D7D44ABC79EC569CAEBA537E3521C16DF5C
311
A5A40EA17746733E0B6615DE7217475F386F18B9481C510F1F021CD9FF027EA0E1F5C4E609504B03041400060808001659844D3DEE336E64000000790000001B0000006175746F6465736B2D64657369676E2D7061636B6167652E786D6C35CBC10E83200C00D05F21DCA56CA76D41FC96062B120735B69A7DBE268BB77779
311
61F8D5AF396893C2ADB70FE7ADA196782C2DF776D7A97B5933C430F15651E5469C55D70F80A4992A3ADC954792C525AE70A1E4D6AD9816CC044FEFDF01FE3FDE907802504B03041400060808001659844D67A66939F8000000960100003700000032333736323939352D303134392D343045452D413744312D323039313744
311
3441393836372F4173736574446174612F636F72652E786D6C8550CB6EC32010FC156BEFD8C6C61289305112375FD0536F0888831283C5A3EAE71712576A4F3DED6A76667677D8E16B79549FDA07E3EC08B86EA1D2563A65EC3C428A5744A13A70E69D8BBF685059B1E8110A0C9CCDDEA57583A4B351DB825AA7F4068A1074
311
844A3E7233429037BD885AA49819E15EAF42DEC5AC6B5CBF789CA564D426352ABB99ABD11EF8F932D0377C6E514F77274406D2234ADB090DF8344C3B72BC5032B1A688398B66F9D92EBD16512BE05D8B29C21D6AC93BC6FB96EE09F9604D617216A2CF3F6F4BCB77C08FE5EA4944C19AD7F48F6B5AD5FFAEC9D8D8779BEB4B
311
1180E37CE473C0595352CAE51961AE2551FE0D504B03041400060808001659844D9E970D26F30000008E0100006800000032333736323939352D303134392D343045452D413744312D3230393137443441393836372F5265736F75726365732F44333736424644452D423442372D343630322D384339432D37374445454535
311
37453330322F7468756D626E61696C2F302F636F72652E786D6C8550CB6EC32010FC156BEFD86063894498A8899B2FE8A93784898B1283C5A3EAE71762576A4F3DED6A76667677F8E96B79549FDA07E3EC00A4C65069ABDC64EC3C408A37C4A03A09EE9D8BBF685059B9E8010A0C82CFDEA5758794B351DB825A37E91D9421
311
E808957AE46680A03EF4226B996266847BBD4A7597B3AE49BDF1044FC94CBBD44CD9CDDC8CF6202ED79EBD920B461D3B9C11ED698718C323EAC9B91F0FF4E5CAE8C89B22163C9AE567BBF25A463D8168316188B408D337428E981D297DE74D610A1EA2CF3FEF4BCB7720306F36F48F5B5AA7FFDD92B1B16B77B74D1140907C
311
DC73207853D2C9E5195DAE2549F10D504B03041400060808001659844D0768583BF9000000960100006600000032333736323939352D303134392D343045452D413744312D3230393137443441393836372F5265736F75726365732F44333736424644452D423442372D343630322D384339432D3737444545453537453330
311
322F7468756D626E61696C2F636F72652E786D6C8550CB6E833010FC15B477830D467222E3A809CD17F4D49B0B0EB10236F2A3EAE7D70E546A4F3DED6A76667677F8E96B998B4FE5BCB6A6035262289419ECA8CDD4410C37C4A03809EEAC0DBF685018B9A80E320C824FCEC67587066B8232193576543B28BD57018A614E4D
311
077EB8AB45963286C4F08F7295C3434EAA24E5C6133C463DEE523D26377DD3CA81B85C5BF64A2E1835EC7046B4A50D620CF7A825E7B63FD0972BA33DAFB258F0A0979FED835332A811448D0943A44698BE1172C4EC48E93BAF3253701F5CFA795F9ABF0311EE71F93052CFBCDAA67F5CE33AFEEF1AB5094DBDBB6E0A0F82A4
311
239F03C1AB9C522ACF0853CD898A6F504B03041400060808001659844D6263DD0A0E010000B10100005C00000032333736323939352D303134392D343045452D413744312D3230393137443441393836372F5265736F75726365732F44333736424644452D423442372D343630322D384339432D3737444545453537453330
311
322F636F72652E786D6C8590CD6EC32010845FC5DA3B36D838261126AA7FF2043DF5866C92A0C41019A8FAF885C495DA534F8B86193E76F8F16BB9679F6A75DA9A16488E215366B2B3369716823F2306D951F0D55AFFCB0699918B6A21C920F865B5E1B14993355E99A41A3BAB4D94CE290FD9748F8716DC74558BCC65F0D1
311
E16EF9434E37795139C95F3EC143D0F316D5737C4D9FB55A41F4A79A8DA4C7A862FB0ED19A5688313CA09A74F5B0A76F2746075EA4B0E05E2F3FF46955D2AB1944890943A44498BE1372C0EC40E9072F925370E7D7B8F3064DDB8118AA66D79D861175B46B10DDE112B17EDFA3A619C671AC9BB1C2252F5EC13FC0F098FF07
311
066D7C556EC057C28120F1FFCF0BC18B54601CCF76E34C658B6F504B03041400060808001659844DF3FA0E64FA000000960100003700000032333736323939352D303134392D343045452D413744312D3230393137443441393836372F5265736F75726365732F636F72652E786D6C8550CB6EC23010FC9568EF4E62E24806
311
394605CA07543DF566394BB02076E447D5CFAF0DA9D49E7ADAD5ECCCECEE88FDD77CAF3ED107E3EC00B46EA142ABDD68EC34408A17C2A1DA4BE19D8BBF68505935E30005062926EFD2B242DAD988B6A0D68DB8822A048C50E97B6E0608FA8AB3AA558A99116EF5A2F44D4D58D3FAC993222533AE523366377331E8411ECF3D
311
7FA5C796747C7B20AC671DE1BC3D919E1EFAD396BD9C393B89A688A58866FED9AE3DAA8823C84D4B39A11BD2B2774A772DDF31F6219AC29422449F7F5E9796EF40BE6170C96B0CA2794EFFB8A665FCDF35191BBBCDEAFA540490341FF91848D19494727944986B49547E03504B03041400060808001659844DE732F737F700
311
0000940100003500000032333736323939352D303134392D343045452D413744312D3230393137443441393836372F536368656D61732F636F72652E786D6C8550CB6E833010FC15B477830D467222E3A809CD0FB4A7DE2C70889560233FAA7E7E6DA0527BEA6957B333B3BBC34F5FF3B3F854CE6B6B3A2025864299C18EDA
311
4C1DC470430C8A93E0CEDAF08B068591B3EA20C320F8E46C5C7668B0262893516347B583D27B15A0189EA9E9C00F7735CB52C69018FE512E7278C84995A4DC7882C7A8C75DAAC7E4A66F5A3910976BCB5EC905A3861DCE88B6B4418CE11EB5E4DCF607FA7265B4E755160B1EF4FCB37D704A063582A8316188D408D377428E
311
981D29FDE055660AEE834B3FEF4BF37720DED63B3DAFB6D91FCFB88CFF7B466D4253EF9E9BC28320E9C475207895334A650D30D59CA7F806504B03041400060808001659844DA065DAC0FF000000D70100002D00000032333736323939352D303134392D343045452D413744312D3230393137443441393836372F636F7265
311
2E786D6C95514B6EC32014BC8AC51E1B1C12DB11268A94DCA0ABEE28BCB82831587CAA1EBF50BB6ABB6B57A061661E338F9FDEE747F5063E186747446B822AB0CA6963A711A578C33DAA4E827BE7E20F1AAAAC9C61440546824FDEA5658394B3116C41ADD3B081320488A8528F7C195150AF30CB5AA69819E15E2F52DDE504
311
35AD579EE0D1CC5F52E54146D048B484F698B698B0274A8FA43F32F6CC9BC2143C191B77ED360CE617D0955B628E84C49E37EB6B6625A3378ED1F98FE666C067E35D776887618F09650366E47AC5E7EE42714B06DA5DD879E80F5D36C962C143F4B999CDA474F057F92AFC952C2DFA9FC9564540827E876A4ACD82379F3BC8
311
675989F800504B03041400060808001659844D23FA767306010000B201000008000000636F72652E786D6C8D50416EC32010FC0ADA3B36D8582211266AE2E6053DF5460D71506CB00C8EDADF1712576A6F3D2D9A99DD19461C3EA711DDCD12AC772DD0820032AEF7DABAA185355E3007749062F13EFE9201726A322D6418A4
311
1816BFCE1BD47B178DCBA8F3DA6CA00AC14440FD981E2D84FE6A2655A8352645B815B3EA6F6A30052D9E3A29A29D7E56FBC5A86834C88A508E6985097BA3744FF89EB1775166A514EB6AF566657572B7176B1690A773C35FE989E09AEF8E9835ACC69C930E37F4D8743BF672E6AC13655E9622C425FD793B92724614D43DFB
311
8AF24949F1E1FDB80952288DBC1BBF40125166E24FE875D6FF086D5DACABEDE0732380A429D08348C6B9C1341EF5A699DB96DF504B010214001400060808001659844D4B38E43BDB000000200100004F000000000000000000000000000000000032333736323939352D303134392D343045452D413744312D323039313744
311
3441393836372F4173736574446174612F446566696E6974696F6E4974657261746F7250726F706572746965732E62696E504B010214001400060808001659844D58B404C6EB0000003002000045000000000000000000000000004801000032333736323939352D303134392D343045452D413744312D3230393137443441
311
393836372F4173736574446174612F496E7374616E636550726F706572746965732E62696E504B010214001400060808001659844D88E57597CD3F0000904100006B000000000000000000000000009602000032333736323939352D303134392D343045452D413744312D3230393137443441393836372F5265736F757263
311
65732F44333736424644452D423442372D343630322D384339432D3737444545453537453330322F7468756D626E61696C2F302F67656E657269635F706E67504B010214001400060808001659844D28BB58AF800100009E0500003D00000000000000000000000000EC42000032333736323939352D303134392D34304545
311
2D413744312D3230393137443441393836372F536368656D61732F436F6D6D6F6E536368656D612E786D6C504B010214001400060808001659844D2CCEBD668A040000E01200003E00000000000000000000000000C744000032333736323939352D303134392D343045452D413744312D3230393137443441393836372F53
311
6368656D61732F47656E65726963536368656D612E786D6C504B010214001400060808001659844D6180134D5F0100006B0300004500000000000000000000000000AD49000032333736323939352D303134392D343045452D413744312D3230393137443441393836372F536368656D61732F52656E6465724D6174657269
311
616C536368656D612E786D6C504B010214001400060808001659844D83CD6230510000005700000047000000000000000000000000006F4B000032333736323939352D303134392D343045452D413744312D3230393137443441393836372F4173736574446174612F41737365745461626C654F66436F6E74656E74732E62
311
696E504B010214001400060808001659844DF865834058000000680000004500000000000000000000000000254C000032333736323939352D303134392D343045452D413744312D3230393137443441393836372F4173736574446174612F53747265616D56657273696F6E5461626C652E696E66504B0102140014000608
311
08001659844D7C9EBE24340100009A0400003600000000000000000000000000E04C000032333736323939352D303134392D343045452D413744312D3230393137443441393836372F4173736574446174612F636E782E786D6C504B010214001400060808001659844D36FA3E2DE30000005E010000670000000000000000
311
0000000000684E000032333736323939352D303134392D343045452D413744312D3230393137443441393836372F5265736F75726365732F44333736424644452D423442372D343630322D384339432D3737444545453537453330322F7468756D626E61696C2F302F636E782E786D6C504B01021400140006080800165984
311
4DA233C2345D000000800000006500000000000000000000000000D04F000032333736323939352D303134392D343045452D413744312D3230393137443441393836372F5265736F75726365732F44333736424644452D423442372D343630322D384339432D3737444545453537453330322F7468756D626E61696C2F636E
311
782E786D6C504B010214001400060808001659844DBE89762363000000880000005B00000000000000000000000000B050000032333736323939352D303134392D343045452D413744312D3230393137443441393836372F5265736F75726365732F44333736424644452D423442372D343630322D384339432D3737444545
311
453537453330322F636E782E786D6C504B010214001400060808001659844D8442B4E17E000000A300000036000000000000000000000000008C51000032333736323939352D303134392D343045452D413744312D3230393137443441393836372F5265736F75726365732F636E782E786D6C504B01021400140006080800
311
1659844DEAF0476E080100004F03000034000000000000000000000000005E52000032333736323939352D303134392D343045452D413744312D3230393137443441393836372F536368656D61732F636E782E786D6C504B010214001400060808001659844DE3603EBE7A000000C20000002C000000000000000000000000
311
00B853000032333736323939352D303134392D343045452D413744312D3230393137443441393836372F636E782E786D6C504B010214001400060808001659844D3F68252D7D000000A300000007000000000000000000000000007C540000636E782E786D6C504B010214001400060808001659844DCA1DF9C9A900000073
311
01000013000000000000000000000000001E5500005B436F6E74656E745F54797065735D2E786D6C504B010214001400060808001659844D3DEE336E64000000790000001B00000000000000000000000000F85500006175746F6465736B2D64657369676E2D7061636B6167652E786D6C504B010214001400060808001659
311
844D67A66939F80000009601000037000000000000000000000000009556000032333736323939352D303134392D343045452D413744312D3230393137443441393836372F4173736574446174612F636F72652E786D6C504B010214001400060808001659844D9E970D26F30000008E010000680000000000000000000000
311
0000E257000032333736323939352D303134392D343045452D413744312D3230393137443441393836372F5265736F75726365732F44333736424644452D423442372D343630322D384339432D3737444545453537453330322F7468756D626E61696C2F302F636F72652E786D6C504B010214001400060808001659844D07
311
68583BF90000009601000066000000000000000000000000005B59000032333736323939352D303134392D343045452D413744312D3230393137443441393836372F5265736F75726365732F44333736424644452D423442372D343630322D384339432D3737444545453537453330322F7468756D626E61696C2F636F7265
311
2E786D6C504B010214001400060808001659844D6263DD0A0E010000B10100005C00000000000000000000000000D85A000032333736323939352D303134392D343045452D413744312D3230393137443441393836372F5265736F75726365732F44333736424644452D423442372D343630322D384339432D373744454545
311
3537453330322F636F72652E786D6C504B010214001400060808001659844DF3FA0E64FA000000960100003700000000000000000000000000605C000032333736323939352D303134392D343045452D413744312D3230393137443441393836372F5265736F75726365732F636F72652E786D6C504B010214001400060808
311
001659844DE732F737F7000000940100003500000000000000000000000000AF5D000032333736323939352D303134392D343045452D413744312D3230393137443441393836372F536368656D61732F636F72652E786D6C504B010214001400060808001659844DA065DAC0FF000000D70100002D00000000000000000000
311
000000F95E000032333736323939352D303134392D343045452D413744312D3230393137443441393836372F636F72652E786D6C504B010214001400060808001659844D23FA767306010000B2010000080000000000000000000000000043600000636F72652E786D6C504B0506000000001A001A00210B00006F61000000
311
00
310
504B03041400060808001659844D000000000000000000000000370000006662782F35343244464145412D444131382D344137392D423330342D3245384143374445334636332F617474726962757465732E62696E504B03041400060808001659844D000000000000000000000000350000006662782F3534324446414541
310
2D444131382D344137392D423330342D3245384143374445334636332F76657274696365732E62696E504B03041400060808001659844DF270F1330600000004000000360000006662782F35343244464145412D444131382D344137392D423330342D3245384143374445334636332F747269616E676C65732E62696E6366
310
60600000504B03041400060808001659844D88E57597CD3F000090410000420000006662782F35343244464145412D444131382D344137392D423330342D3245384143374445334636332F7265736F75726365732F322F305F67656E657269632E706E67355B773CD4FF1FBF73E71C0E67EF7576C9DEF3EC995D46C6A1EC50
310
46649CBDF79E192942562825CE965D8A868C2842C8DE9FDFD1F7E7F138F7078FCF6B3F5FCFD7EBFDFEC41B196891913091804020321D6D7513FC77D8C5070EC3FFEE51B21F068154CC75D455CC028A3EA68992803810109FDDE5D5CEC5521B28A1B422BF80741695D5B529DA1C2D058AD2388BDA9F476F7C2CADC939304173
310
DBF48A452BF8A700C0C70C3D121C1AA15A5270C22E2B9E28763651F7DA0D12CE11077B2ECD0D560B5E3DE2368B1E65C5E1C87384A4CC5F2D9FB8BE39E9B77C753783A37998F5CEF1B4FEE553463245C9712270880DF339E0B882A6BA713D865F6F384C842D440934EF264F4A304F8DE4EEFA1E2BF5E2D91F5ADD9613D6E31D
310
DB33ED31DB1D7916CAF091286EA3D31B9CFECB78BB0060245B943C4C040119FF780A74DD308BA9D028678674EB5504ECF284EE814DAED07440BAF649BE4B55DA2890F4D73E2D489A59EE54FDB0A85B59F2F52C4858A02705C4815A792B0C4A996A2023ECB195073E115E3E3647F64243A8338F2000BCB58DA5692C7E7C3D41
310
3F963FEDF3CF00FBB0F831A9D51360FECA43819F527B89FA260EB63C5DA676830AA3626A3693B23F1A17A0DFFCE3EE164E31B5365EDF0C89EF64D8E38AB0BA9A1117D7C3A0EC44F44F4023095E80BA610DE336D0F99593A88BFC5306E72DF98F7FD132ED95878DF2964EA7E43071359FD83B2BDF9C6B5BDF768F0F3C0FC351
310
199526F53D9460A34511F75D1B63E488178569472C91A94497807A3FD4A390C6558F26D416365C3656DE6E769DA9D8FC73774E1709812842DD8EF96AED1960F79D21B395CDDFE6F92CB4EB962A4668C76990E2EF29798C8941D67DA50F4A5F947872460F1F6FDB794E8A29FD7AC0C0D6E0714339CE258FB17AE8535221E346
310
4A10F29A0BE5EEECEFC5675926A89F49EB14E5711894F6586DB5754EB4D5DA9C6437EBA57DB97A24F8B8A8DB295FFD73266CF57E82694DF5166DDF93573AFE9C9C5EB05F8FEF8E89E0A8917B0B3724DB7BEBB53252581EFC3E38166BA131A3A5B42FE2AD00A769BBFA4458D2DE7822F8C4F63D0B8E21B285AE13325F3410A4
310
35C648C9D91FDEB109E73CEDA7BC796961AF79175E1A3CE4C5E8B0D009B0C9E29EFD98BC8E97554E3D8D838424E270F7685226E5AC268E021EDE3522D583E8F20C0BDE2959EF5BBFEEDAB32FE9A3ED0E39F211A86AA9DEBFC68182EDED132AB8BB794442D2D7EA9F4D8BFF52BC4D55BB165124EE90A42D101E67BBBB292FFB
310
4F66DE5BF2300E44546757DA7CEF8932BFC9F92A0707953491A55C5A5ACEDABD9FA1AEA01BAC3DC5A24E22E7C47213493996EFBC369D086ED9397C9BA6C7F9855C7BD5E15BFC8C53DB3D2A4C5901A57ACD2FBDF4D1676E95338B2C2BCE65FDA4C64F5FEFDC7D9CA5AA1FCF11E193F2FDABF0F4916BF13FB916A224380E6462
310
A9815F2300DC49CC4DF8D055CEF76462F4B7A7ACA7365C2707891370BC1D0AA6203C44CCAB47084FEC057F27FFCD57F89B8B9852459798A675C66BD7CE572CAF71FF7E6D7ECF7BF62CAB7B3F1107DCD04DC55A3F9961700286141C94A4F771FEB2BCDA2DDEE0CB0BAE402FF1DB0100F8E475DFFFC074DDB4498AB7D186A765
310
4DDB1CB680D703D47CEB4E72F8CB13D86A4AA68116E26387B93FD6738779B34FEDB8E517EDF2BAF28D9BE93A1D3A164320E07D42E514725C29515FF361754213EDE06B079A2E99EB1CA82A02019EADEEB87B9AF005BD04BBCECB14AACD6B24EFBE482194A97DD32400685FF1FEF1544D1B14EFB1E7F08E6D2CD2AF52DE757F
310
35F5E62332EE88EA26417AD5C3E0E319D68F25414E6D672BD4522B278C57D18F0113921C71D96527E091F00CEB15AE23D24667369BD3CEFA10C7549D930890BA4366F4EBC55F01F746109F98ABCDD5A3EE06619C6AD78AB33E48E4C9BD21BF7478B385EC05C4F8987E2C1BFA0A60EBEDAA0AE0B015C2720ECE180FB6F2DEFB
310
EB822D96338C9B63822183BBF52FB664A7AE57003AABCE512BF77E7E31BDA2E739AC4C131657DDFE5225E900FB56CC01CDE808FA4A9C9DA16AC679656BB64796283D89812B8F91136AE18EE5EBBAF47A73BE3C153EB5D4CD491B4BFB4FE690A4CF9ABA08C0D8AA64220C438C96EA6CA80B58FE5761E697B3A292EB9FBDA502
310
FA863E49FE694ADDFFF9D62C520BDD1A22014147A0903A05B9B729F54272EF83931FEEC057BFF8C8055C279EAC5C0011804828734024F6CFA319C9CC6867C727184465CD9BB7ED386AFFD96B294A85E3802FAE47244602D8273615952B98C4F23F7EAE4463D9D638EEE374A20959E0FE519C4CFB0FBFE5DD80C2AA3F9DB961
310
D1BDE57E67C9BB47B77FDD74EE3094F5DBBE3EBC1FBDB7393F5116263009E2EFE1AF9A221B2AE234C902BF70E9F280ED23E73908361565964333A3F01D0B006AF32FB21AA1316744B489D5A198E85299241735BE559675130955C902A8ED761FC0DBE337A9F91919AF5CE32AF902ADF9AB2615E00E8A94586BA1A90839B618
310
32FF1BFB76D2EFADE6DB1BA04CCAD3DA649E7E2A0219F592E22F2AD54847EEA8E42271011E9074F8F3DD9FBA6CDF88FFC9FC7E811AD1CA8F4557CE4AFC7BBEDCF0114A48689F20A584520C74DA8127124B767E2FB91A6B186246727BE63C9445BAE02088D58B8EFDC0F1072407CD9B89A13F6303B4A928F593AD489B58E686
310
9325790ADC406036C591729FE14021F94B7796BB11848D463536A092A26F077F94639F7CEEE2A724C66EC885F4A24F8B8A0AC321F8FD149BA529460FAA34E4663C02D41FDF80BCA222D42F0ABFF8490F4FA74C673807C2051D8E467B47B616072860069A9A303ABA9B319D58404461401B0A0F9BE5E1E151C14BC33B32ABE0
310
3DDE91708DFAEB15E7C0D593C86BB7D7EC17BE56E57975F077BFD5525F3A1A361D584A75E08CF29FC7B44B2B3085014F3A5A14517377C3F6B8F37E59514C3B12F8AACDEDDA4DFC49BE5710101534CD6FB6DE15B50F11A09472AABA727F0C49D9CB906B158030065F48EB3625E010CEC1D511D0053474B11E6A4F01C0D6EF1B
310
ED3A944FDEC70E0DDCDC756C86545910E0DAE3BE3AA9A404574C2995CD5CAF9549226BC94B4F4F0F5F9086F418F6B32346464610D8BC7391D3C3A3CCF04CFC1FB2A3A3170E369511868F14EEA4E5E438CC73DB1F3248AA94B6B2FF33B222FF3D1E7BF146CAD229770158063BCE4F5391964DF62F7E52A7BE0EEA829C9E13C4
310
C147D6F93FE59E111DAB5E4594D6F3CD1AD375EE039930EFE5AF2BB2D41C83C7DABD8C659BAFBE8FAB392CA634F3D15C1D945DB4588D2B0824A4EC928AAC565557CA2F0DAA588CA5BE30B3A8004F7BF005E96CBF891D7F18112A3619FDF530DC8AA64954258E1811789B5189B49B4EB53F5F89F7D37523894F3EB57B373763
310
C91E502F52CC99EB7BDDF933FC324C4FFC2561DFFA7339FAFDD0A4BFBE6D3A8FF9ED1FC49898139864602458968913181918F719CCF5A68B2EE9C1FF050E34E63107003B8120FA982C21B30A874E4F5E4B38D5A8290C4B8D9BE48A0BE31EA995BDC37AC6DE90BA17D259DEF53605D55922FEB1855D915B659FBEB350EE0DFB
310
2F9F766E1C84CC8964B75D08667445EAB966015F63A18A9E0A325C1B3DC628C0D3CB60F767FA93CC65F25458BD23C3B312716E5F40E5858AC06EBA9AB14F95DB99147B832069201541D09A0D856E12C629CF32683760EE855537D1901988D5EBC156676C7DD51D7207CF3267AF1D76C2AD867315E44618015313A98B19941C
310
696FED3461CAA9B5415F918556D7802EDACEFD6B2E45853A9735DFC9DBF7E440F9319F8B6805A973BCCDC76C069A9144E51F187EDCC12FC31B5DEAAF0A76137199B106EC84ADA6B6EE697D4E6A96E007417F4E880E8B1E89B4BCE9D81EF611E2ED8F0C1A6C25F620FAFAAB656A7C42D464880E8AFAB0E0FC8EA38CA9A8AEEA
310
EE3E4648BA4680270A89743CDD3E6C6CBF34B7B640EFA285ABC7EA0A1E28F3CC963D114A80123EE66D0AF7D5380EB41909B605AB4765B709B808590458157E69BA1378FEC4B48CAF6A730E3BE3C5EF2DD1A5EAF94B1DDE50CEB55DDFD7EE9A16747FA4B223359FB1FCC69E1194892BABB93A1D5C4E807AC0EA2E30180811E7
310
7A2291F6E7F7FAA5E0F60215BC6024E48DE436C511F0628B8CA189982D4D83CCA17D305A7E923C37941CFDFDCD93ACAF735EF5F0E61BBD3E6C41A59B242790D3A3BAC7064DCD89AA2E37214EC839820949D5CAA31E240D2948E48F690298974A96BA9A8432BC90F5071D6537C9666EA4564796B7AFFFA548077BEEA75F6308
310
3435074BA182F3699557397F71548383FDA8CA34D99B981E72835ECDA5DDDC151315173D05A21F651AAF8524E88209E2E7A737ED1045800CE3390050BCFB8BE588DF111617874C62575039CA588EEFDEFEFE319B739DE2EDC147092A262611E159650E787917885EF08F1F51B8F2D8A71D60B58B190FEF9541A1BE94BC19FE
310
A50784DA1419FE4B0FB51B8D36B5FF8E1286FD8AF42B91E59A5F1CC4D60174E764045FD8C57B18209B217F89A62252BD20BE0E63E12B8E8F029FE19E0E8D0870F58721A557082250D5424F7909369376E41666C0EE77CD87CB283F661D5FB6D0DA023CB67320A20DC7BE661E9E1BFE5463085C557DA1FF9BE835733766C3D1
310
39F2CF9E2208873AD0EB4814DE9E6BF2CAF81614D4D43906ED1C05A3265CABBFE192770FC2F64F940CB6B17B5F166F133C9AEEAD2641807C3E69515171DD74C4A85311513D6EC9530B3B601B6BA3EBFF3B5C3D2F7D69765141E345F75433953D013ADDF8F6AA7DC3F4A7563FE5C7D367937E2900D7EAD0F9FC9A4A1A9B5BDF
310
1FEF08532660C01C5D6DE22199AA774383E306DAB87E301ABB7D213887F9869D4942D0D71E94B27EDF216A318BD488D45DF84529EF575AF3C3938C0AAA0215B01994153E2054A0B894DA5C784980633AAD48576957CF4AEAEAFADC7C587368551C73DBE1E57C58AC713303A8BFC258BD04B51724459FF9E24C03A81E0E0679
310
CEB9B348C0DC998FEB9C6D6EFA77D247CC8F92D3848599ED89A23218D0636465AD1CEEB7DC140D7426F83491C4E8E8281C2FB35240918FFECE880CA2A42D70E8B20B34DF5221C7DB0CF90ECCB9C745B37A47E9B716FF7A97B7A252C1F3814DC7B1E1A7F72B8751D524EF7CAE45B0C73B3BE7D08ED39781B380DDFC9AA4A474
310
9C9493DB5BAD07A6EA6C092FBD0E85DB004DF06B8C9D3089C5320187E4CE1846158C7EA7DDAE8AD9AFFF21AA3A1026BB06A259845E8232DEE62811A4DA9CEAB3A4887320B76E2AE5615EAB7BDF738CBDD01F1E64064BC13D9EC53576751CA8CACD58B3CEB0E6CA585BD089B2A59B9FC101403387AADBDBE70586B93D64BF3A
310
D4453EF9C3B6A93817E8346991798601344F79A83C51F3D50F7BF2683A3605F51A72449489E0EE6169C749C60B1035651103AEE24D24E51A759C840DD3FC6504DA6FE107510E447B43461C79D22970B75DE5E1BD3007D1AFC619A4A4A69B5626AF5E9B8374E20677F77E2F8E73DF868E8BEC7EBA7B6A75EEF7205E1AB9486C
310
B642741D6E03FF13FCCEDB1C4AC129886268B01CDF4B124AF797CF784F3C6DEC97A17D4B558070A0F1C04DA4FF9BDBF34159AEFE958479824B3F58EBD1E19088A2AFDE501B6F2052368A3FD0E650A179EFAB1561E1D27527077136E652676C3670F42DCB3352F48F6BC86D2C3B0051727E41A0A4DC6CE2BE9D47F5CAA2935A
310
3C0539AF080665997194ABECD723B08129CC5B6B21D2E7D54CD4D12610E7E9FB8306771A89576C7A982002775ED44F3F744CF21EEBB27A631671D921938AAEE3EB0D19CD1E083727F607823E817BF599DCED5394E37EEBC2E88782E638920CA641EF74D4CDFCDEF06F4278ECB18E31E7E9876F2D783C8BF429C75395F57E98
310
C2B495A3DA077EB3AC3C158608B6B57FE3EA48484D9A480096FCEE0DE880950E7E5A5714131C5C41AAA29FD19AE81AC145FA1B9E85C7169A5AB837B213493DF7E9AA4B5FBF9CDEB36EBD21EF1181B7CF7366AB2A951D01E37AF4EB835D1BE8C117CFBE7625D2EBCDB0B20C5A4B45CED0BCDE3EE8DA9DA78C2E21DEAAFFD119
310
7E463C33CC6A80FB785669B856EFF7A8CCCA2841B5A5369173320B1170C368B2748D81062EA0296E5E2D95D7667A4A46D98A6FF475C76AAB0A8C8D45E226FAFC9FE0133EA9F60111F99CA81ACE03A1D14C89E8B0D69079C91464FA1D99E651D0EAF606F345C42A8A1AA9BA391031582B96D5B4176A77AADB01F12FD298A75D
310
EEBB2C82F0B8650E880722F8DDD90C56A7A058E5FDEF1AC93545BA27367C76F5D8F9690CB6F8DAE141EDD7971F0FB548A2AE435F224D6E5954CA155512F7332029D5A1230854B79F258EC5FFDB09F5F6343A8EB193229B7F7E79B3E48F8E183860B38C8269D1B53738FF1E0BACF6AADA6D4869E9DE708E79B5DADCC09B1BC7
310
6F649731CFAF59A83FD8BAE4C749D66FA87A3810D4D62FFE826FA400C0F325D2BC0F3CA35F5847B82A2ACC7961745C823E4D863D54460AF792CE6F79B5C7A33B25C3AEA6CDE15A919B6367D781E9D44F61BF828672594A3E1D9EDD6DF179A81F27EAC05B936575D73E05C209DDD2115CFB705DF9BBF3C911589B3640735E9E
310
618FC9C36A7326C82B2205E244C55D56FDB9D5DC93CE958D4BF8174D2B3DA54CB3C09F2C2A6DFF73D23B2197355761AD421EC581284A7EF8DE2CE3497C0C804D49B41DFD6A7360844E5BEFFB495CFCDB97A4595911CDBA623274CE852B5E278AF0BEB1770E9D37CD977B2766A7DED0E94B840E1E95E8C77DE5CB6354AF7871
310
427C28ADBEEF7BA0A28E19DE9ACD75F379FE373EAE6DDDAE3834692F9C2B03B4FCA8FCA9ABE8EEEBEBB725B88A7C90941E850682CA04061A7DF0CE82ED49BFAFFD42C309818FAE14755CAAE78B0F73243ECCCAD7DF58FCB9CDFAE7A4D3E6671A613639130D056C8383C8F4FCF4808C331E544DD26E4755D09EA05253B3049A
310
1E32587CC25D72E073E2CD96D04A71BBCB0038FEC3F53D254199C3CDC67CD66640269431860225392B2CB3ECD0B4498AAE78BA1994246AE1EE78F2EDFB79F6C6CB6B5E279C4D373FBC21CB2698C9ACBBEB6A4BB6B39E16AB0E421CCBFC7654D81ED86022F9BB522146F9F4772E2D0E4FA70120C95A85A417BF5078B232F475
310
4363EB1750B2AC2148EB46B1EA72AD9B4D23ADCBC589D70106C3EC2ABEEED84DFE28E718C6C83502C28E9FDD3B09DA0A6F6F7B72B706A31C9E2A331EE70DA56A083D2177BFD63C55B11D8D949FAFCF90B23A1E24B9B5018B9A17E99F2890EC302F330FE7936E2C23F0D237EC8916F5166AB84B62A21BB0B950146962D754F9
310
2CC2C8877BED8FC7B7B25726DD19545392570B3A2C66B58F027BEF412E552D12A588C4A3CC5C3193FCB3485EFFF700D0B9EEC077754A33DC1FB9E25AF814628F91DDFECB667D3F7690803F38D13F8AE39353523BB08FC6760144AFA2CE28236F65EDBB3D5F59A57D612B99E3D7E5F8A851666BF9B5A6658EFC96EEB37A378A
310
BB0EB3FDDF1303AF32C41BD1C8560745D7BD81066B0D6313359CF488563D3BA3F8E2185D1FAA3EBA1397C9D0E3DD232180A4DCADB6AF25DB3AC3CC26589C8239E66E81547BC7E2F328F9884764CA37EB5DBE390DFC03A5246B456A7C3684C4377D0EEF9A350680FA9A077E8B2957B489E09AB1AD41316944C2254B5984830F
310
691C93CAA767EECF976FA5647538830B5E63236A6F0365C1E0F3E327F24FE35EDDBD7360B0F7374837409F7A6311BECC12B7026D4FA1AE204FA3F5FE904B1F420C7A9044AE58E403E7C4848E7DA25DC9EDAC79DD756FAA26B9EA83ACE8A214A2612A22AFA19DAE7DBAC5F8CDE1292A485F98DAC731A29FE01A3966E96BCB9F
310
B5A4C8830E1B9AF0C54B87FBE221A097036E5D28D1F869F810C06A9BB0AC0612F69AEBAF893C6E7AD59460208BAB3A6B09CA4F6BDDAB8CF0D1F84B72487498395A70DCD754796E271099A567A55CF242BBED64696378BB6CF25EF0FCDB589F3A82F1116D010A9AB9FA4358809EE0C973A2B4229BAA876A70B03AB49CBA7FBE
310
71DB1832FFD32F9BF2C8E98075CACAFB36921235D0F552B6A67E94E094097A5D7DF681B40623DA535ADA7A9AD8E9A62407D7C9A5AE51D62A17A83A23728DE86BB56115804D3F2675F2C6B87541A0FC497BF0CA86420F558C9859EBE9FAD62747E323E3AADC03FDCDDFE7407B09DA90B44E3185723C5381EAEF589765E2F7A0
310
99BA46695BAD60CEF3491B8A171F5F56444F7CE9455312C3498C74173AEA0214EC029833B34B650CBB5A5508D5091665309642791708ECF27CF11DB3D797D6CFE474453BD4BFADB768094B2147814D81C7CBAF8228DCAF5564B5891F5EF6A860EB2E323CB82AB868D8EA048880D63B0DE5341F1B3D53297B928A11E15F25E5
310
148990F710747C3509ED14909C552EBE3973246FCE55D00564D8310BC3EBC5085D08D806799B77D6C57FDF5E55837F9E934F09C03C729271B64F12D0A9F9E938107CAF7BF1EC8CF1BB9B42363D33070F4CACB425E605DDB0A34A12BB936DE286B9887A4E2E558F0886498BFF49C311D96C277CF6A9FC0D75AD0ECC5226D7E0
310
E3572012E56D7FDE4410CEC7A6D0F997F225A2055B8B92E3956E875AE4993CB3D4C9063AF98FD45E1BAB165640A43439A2C9181A7C355B297C0A0CCFFAE19B6FA3C2BA238A885FBC98B8F6DAF4B94B97304878DF4D8BFF6A4AEDF79E90ED4E68F00CD7299F4E0D83E35601AF0CBEF18C1E870E74758FA91F5131075004DB3C
310
FCF09AE1DABC11957FD9808C92E8A678CE9DBE40DDA0E0D1D505AAFBCBA208232BFB6FB3704E8985E61ADE53DE74152F5C7DE74B1DEDCD37DC3E8FB30D7EBA8B9EFFC3606BF90B8D438279CB7709FC7C00D327F41817EEA71CD9E49FE9C8C9A81C70915D9F0F15958EC5AA4C3BBFAF46986B90F188BDB24B89DE3C6F29EC3E
310
6F66D84856EE96A35E657CA41B41EFD8DBFA16AD6E91439EA92B40B21C053249F51AE50EB0B24C770FFAF40DF12C8436366819C48E36547D4E7B72FE2BBF10828583057814A668BDF183F6B2E58DFB151103E56303E63D00F39C27C4661605DB644D19175D02E3F0241E8FC3458D17AAAADB117CE9EEA690D0DB01E634878C
310
04C2C9310B69FCAB831151E3AD293BEF6E46B0ABCECB50F5939B39C613D41E81FAE8D34CAE3C4566B761D37185FE864AC32FCB71AEF39DAA5BAB88609BB980CD2F07A8F941653B529567726E2B2A58D079DD57E1E5E31426CF184A04D7B03B985F276D47406AF276FE32E3328BA866EB1FD39BEF57863A317634AA5FE46740
310
9B3873F5069EF0D71AF00AD189D17BA1974ECDB2D623E9E14086386A6AAB5807825C37B015BFE892AFD154920EC437EB945D958E18622E1E0FE2FA06557CE4BB9BBD05A2D40E774DA2B65473791E314B7D6C886820B2FCFE4AA272B3B8B15E7344A145E8AF919B5454D89D36D413E87211186BF6F645E5EC94DCCE8E1C7990
310
22E4EC9BC86D7A0F2AFB1FC4B2CE48F84B3F49ECE65BAD24CADCC07EFF39AB06BE9E6B27A059938EA7208838455383DDBCFCD967DDE4650EF92A14FF933C975DB20BD7FEEBC4487576485963D757D16340D9599FEB362F775F38CA4185A86F74B629C81B133644A3B18FD056E997E0734F9BE26D11C0AAFC669E2AC9FC41D2
310
81F8B2E1C35AE27BCE05F3DA295488096688719D974DF1B5D182DB7792288697F8763CFB43562C1CDEE11C4AABD5C22B6E33F6F389CFC3477C5919DC0D533F8A7A1846B7ADB60ABDC26C43D0CFC8910B7C15EE22675BD02702ED39DB77A87A192CA7A543E6205B979B9F5A6B512A3CA799E198B2D5797C0AF8D1D872CA455D
310
4D431A7879D4DD76110B5FF7F4176B54477A9EB5E4A5D11214FDA585F0382751D8E2582BA5D2075053298FEB8F1537304E32CB22C2E2B693DC0A760B1DFCA751BDC445AFDCBB12820ED85F6D5298933C7EF1211E9E057684056CDA3FEF3BB6052355E162DF27C59E965A8DDB7F9437EB72CDDA3A090DE65A5B2F50326247B7
310
EC67B73ACC7047FC9B353D6EE990F772207C6EC52B39DC2F3C0754821DAB559F7C1809C7D0DD5B0499D0442E0A6E391B3D5DB46D11E731E6794EC77523FBDAA242ED67F9FA1FB684255671F63C9BCFE6E7E896D51001A6113EF2298BA494E0B0980D1FA5B9D60796554C02256B1E0345FB7C6186B6A19D2DCA270416262845
310
FA4F42DB5D9B0A0B6F07FCA2E56C242522E001E0CEB734AF310FC8BFB57E38E03AACE93B3326A2197891E68452B26A6307FDABFEE0223D3C03C3C73D2D5BC054C8311F12004CAE488E5C29287F8156A2CAA4AD0D7BE6B97264E4139F437CE73ADF52E5134C52B819777C18B323A5924E4F67AFD13B1CDC3A61793A79FAF5C0
310
CEB718E441071E797C6DCCB9EFCF7E4A1E9F3DF3C2F9C9E8294E9586868788C972857FB0556D7A26941A7EEB9B580AD78EC40B85DC906B4120A563CA3B87797ED612D3B035962BB75F6515A393F4CB057F564CDF54F2E5A024514E6A1F901DB80C7E70B1FC05E356A7E72FABF4775B3E3FB8F70A2A8E7B6A94542BB3041579
310
78CCC999E707A29CC795E67A59CC546A5D47B368954CA7B6E75EC9E1F6FC73CE3B4F71F8CB1A6B15923D61EAAEB14626AAA9D04A26EB9C66CD1BE86CA31A5D8703DE04CD1EBCE4F5CCB62F93909AD11E55799A781A956ED27D3E738F4538CB04ADABC7DAEF20BC35BA6A90BCC1DC61BA05F20D8832FFB9BC9B15E2DB838A0A
310
FBB7E0C82A562127E0446894F427794C3037186F622BF24DE1B00AA10A23BFA47B2A180D6DA5AD6F7326FEB8C100C2D7142EB2A0B2A9D1008A09BA343D70E054AB69E2A7EDB783CBD92537FAF4A44D1296AC2792729104B3276C276C951D0CF3CF3F1E6B017720A7B8505A5FF9589365979678C36F1BAF759EAF57C60F1FF5
310
FE9DCF5F8E764FF25A2D06CF25117A8FED51884C13B2B750DB0E4F5E3D64124FCF11F0AD8F1CC3B3DA4B38ED22BF1CB2585EE6BFEBBA63FBFD44F9537B9B37BDD6B358720F98A8125AED4349CCFEB0E135F19E208A04CA7E2B10711185D72E381F448036EF57C9F874E54A971CA37A639E986AC0226DC5AA00D5B14FEA9192
310
234B3DE617814FC221C92F33F1D392F297731B567FD98FD91D989379AF567A65B8ADF177591DB90FBEA99BF4ED11B16E50A0AB1DBF1156D034BBE04D69D08F939D8E92BF525A1DDAFF80ECBC95D8F45D3FDD289FD23F7D8B452F8EBB34EC082DEEE68E18EDDF072060FAD2AB1504DD4879BF67099FC58F6E9DEFBF645D1633
310
4A3E9A127C6F1AF6132CF287E433B43A0EE93812B4AA0B194E03EE3FF91EF9C6ED0074A2F6EB18A96A7C9890B1FCDA1F2095E944DB911ED54C60DF16FB74C8CE9BDC7C54C4F14078CF73C2FFF1F1BBCCD7CF64F71407EA1683DBC410D226627F66E509060D5C0AFD611DE681D509DB8DD12FB1265B03C6F5C55FF4C30BD941
310
87FF692B4F152982502F193098A789526A038AB529A52BC0DC4FB6285CBAC10A8B8DB75DCD9BDABBB221E27D1F8DA9F5EE5926A1C8AA9BA9BC09239C6A7F12914EA3B59EFF7AAEC3FFCCE56F1C5C2980AD072793527565E774F4631DB178CEEC691B1F367BEA0CF2907E1D6B854D527065979DDEF002D8B2ACEA7CE21AE297
310
737EDE1D45B31233B73FEA35BCFDD0B09721FDBAF6432681F2FD10C3E9EFB246FD6E854B344ACC9D8A0EEF876A7314B49B6A499FC650B099D650DBFEC7638ADFD245E2B7839DA5AC5F7D5623FC0ECEEC8653FC9B2BDD1AD4D00A566FBA7186DD3C9CD26512551637498CADB950FEC71ADB9A5524285DE328B8EC7EC75D2345
310
AEC6A27C42AF6D9B92155315C80DBFCABBB7DA0FAE425C4FB896B15C9BFAC4FE67DF5A23D30C93DA4D8F36FB15D100050DA6062E22AEC5F4DAC4F6FEEF97AE05DE63C6D38F9E068A20BC5E3B6BCD75320C5090924E7F93640A7735B1A43451C2D91EE62C6238B797349E59890AF3A520DF4A87095F3ABEC2E61F0593416CE4
310
6CDCBE0E00E2523FCCD04408588B5B6C9DB6459C786CE378770B54F51DA3A5E1DF2A3349BEAAC234A6CF8993B598B3B25B4B113E353A4D750FA7534749430F3EBF2512E7EA3FD43C6AB9A1F765A58463B306721A15D224FAFE8C6F5E3432D57EE697DA0DD5A9D4866A8BCCAAA9DFF1F06047851408FEC060471D0E3EB86BFA
310
F46E4B5E60311DC3E3CEA147C75CF971BE74689507154FF2D2E92F15CDB2B9182B11459FD8ACAC5A85F174BC94A7F4EE4C4F5CAFA7C02E37BF0BC77B7DCD0C047BC316F562A01A441AFA7931CC84A28CB9F4AA367EB515778F29BFE61195FA671F4352E5E46E3A64773F1F76EE5EB36D7BCE9BCEAD837A4D77F8DB8C92AEEF
310
6711920D7C7D0F76B0FD0EB7AB83724CD35BCA7D36DDDF5FBB7FF6F04A91F3E2BB3B8F1A43CD659639507FF6331C5F697BCC782AE57D757A27D97F1AB9E0AEDB43F92F1B2AACDF5FEC8ADBAF9F814E2027003BA2F9E144B1938A7A04050AE5D953B82C45619165C813A10E76DD6906B3C16438064D14CDA713AEC420034613
310
E1AC7241904A49FBF87409AFB1FCB9B72FE7933A87D8FBEDACECE4EDCF6A4FE9FB94D5DEB74FAB7CFEAE17EE965DF980DCCA2D04134994F9A2E94D2265DA4FE6AA7B7AC15FACAC2B5ABBCD7DFF542C5314FDAB2E1B9D8B65220B8E2B638BE008E8DCA22678C820C5053664D15E89F2D735B51A84955E81A443545E9FF787BE
310
0FA700A76D136C27DA179A7C6E8939E01BE756E19CB292798063D8B97F44E8A27BCF3A614FEB8BE974A718E86F7EC99B53CA35FA24F61F2B07266684623A3D4CF073E511F3A10A8FDAFAF0078C577F4DF9D339FE7862E5FA47CF4344209E5BF76D783B1B48E152AD281B15FCB934DCDA49CEC5706B1EE8B460F435324A5CAD
310
154725E21AB8044B75A557A79F6C807B9340AA3D92503E866F4274412926C8C504E4D5EF8C0E68DD0B028781A6B4054F11CF18941F101C57CCC796773ABC8DED9CD91FE5788806C05E548895354AEAC96546D55B0E94A59F148D061F42AA398D822CDECA4CDE79E13469BDCC44FDC990F366BA5978C15F97ED80CBFD73B0CD
310
9B8B83A4F6845BDFBFAF034019473FB9A63BD55D3A4A7284757071574029A4D016DCCBE95DD679EF3C4880BF169422F8C89B68A988D2B13793CAED4F74DE7486C72DC94DF46B8E93D8E02EFCB1FF9B3BA10C8AE7F653DF94F4AF466CDDCEF5776687F7C4C14B63E4EED1719DC2EC482D7DBCC7AE518CDE3D5FF86D39000EC3
310
673C0044E1D308BF05F74D1B5F033A7D1BE7F74BC55BBE3E4A20F920946CA0271EB17BD2B80E5660ACB8A29A79F5E4BBA49D4D945B6EEF4A7EFEAA65E5555BBB57A7E15D2F83C69F30BBB978D2B39F1F26FC097424D39BB33CA3D87ABF64E307938B685BAD44F71556A30B7E712CA4FE600613C3E554B69ADE949A7CFE214D
310
F1FFF05CB82151EC6FC31950239F94CF7AD39DC473F6EA356E5EC2C4EFA04383CEFE985A127484366FBEE3C0EC4FEA363E4F6632AE781392FD45D67B63FB8DF70E82734F431FD3443172A0E30A83D60982D55FA6A2CF86DBA8382502ACC6CDEF3B907982EED1160E14863FA242F9757347E1544275CCDCF71ECD5F8621CBEA
310
326B8BA884AD7F825781923E66971F04010D574C541D8427A438A37EEF8AF88240EED7362C953F5A81DE2D56109CDE2524EA0F5D2F87308C0C47BD97AD605878AB8589E17CA83930CB5E0DCCD75853D68B1AB136594926DE426C367428E9334AFAFF90ECE221BB5DC9E5BB53D2CDEF954EAA9CD814F0E5725F1965DD458E5F
310
8487683AD86B9D0076BE3EE91EB1CECC5331A67A3F79D8B27587C12EC2A6A70474749F27B4C0BBAFB94B34189E88DC18964BE4121B9137FD516C7755356E50D6714E31ACD222621EBBCD1CFF81D87479056A9DA0E0B8EA19D24CF937DA89F78E8650CCBDC110AAB6C4E46DCBFD0446BA9E2060E81F314AC2031E88135E5476
310
AC0160EF5C0DD2EEF1B8B5CB2D198BE9A554A9093B5F7D7E4B5407DDFCA1D9C152FD97F55BFFFDFE802954DFEC8995B983E28AC92F1971E28F531DC407A1280EB125F64A72E617EFB27DFBCEDCDA2D6F2BDADA36873EE46B9BE1782998C63DA7182BC383FB6FD15DA472B175D7E8B4FC88F38D6E07FEAA3FA3CBB8F6B449EC
310
F14D2175E5C5CCA3A42ABF24CA6C9395AF74535F4DDB38CB84F56614B0FD32D7E19CA5CF988DB4449C40E23DF2B16772594554579094450F56F253CD25EA7F77366FB1CFE79696C428BB64D5A41E986189427E5E4D7E2DAE3D5BB4972B3DC44EAABDDDD63A2264ECFA5C786EB0EE1FDC5BE34FA0F08376869FD1E61EA06CAE
310
15191135445EE8F0394161C3266A596AA035572BB0C8876180D8B9C77D307DF9DCDF7365ABDA6F3A2366436457A4DFC1F259666569A9E4A79C817BDD5610E5200FCE894A358EC72858D50EF67545DA81C6FACE3D457BAF70367E1E6BDD9A952FB4F56247F58F523B97E640246051A72F79BE42FFA0B3187F63097F91C48B86
310
8586F714B0EBD5A00A8412C1236E1298F60C72BE6C96B82B404CADAA304AE9F303176B14BA53FBC2D5E86377E35542019E24D97B96A49B2C0E5006E7795954DEAF5DA58958839043C6C70BD3B1B33B6DC5C31316D8A6923F142E26F6711A2258AF977DDF1F970ECC4F1F2B434B96D81BEB6E89BF3BBB3C7C8CC80505070723
310
D6D7D7D3C8CA27CA164A26024FED94B12A86031867241DA53D929636DA600F050BC40CE48B8BA03D69224720DEE2ED2127390BDF5E6EA64527BBD4C4C63FA76BB801FEEC0E61218EC98A8A86CD8313781617877E66692839B9468CF4DB8E50A73986E558E309C0D6F676F921BE02F1185454DC75B111572FF9D27D85EA14C0
310
5AD7271225B391C4275659CA4A43759D0BA44639BE4C30A84DB7F67A41399FB95CBF923B1B1672ABC807C1590557FB18D811983FA97F5E609516D62281D38B1281F68FC75528C35E4CD7DF0F7DBB5E5DD69C414EBEA2F4A5B241B996BA77AE6C772E367408C633EA3E438B68563EA8BE7667F3A4C4FDEEA52ABD78A2820F44
310
3B7914A15F180018D231E64519C56A12F6CA7C8DAE18F06F6B769DBF92329EF6A5D18FBCE600F36BD8E8198DE5CDAA96181F3A756EBA5501CEE58F497EA4F418A2B82565B9BCC611713C0B708CCA1F398B78C5F7D03B3437CC18F13061F55C7BEDADD5ACB1DB0E36D3CE47FF6EA1A563A57E9649EA5D14D1A50EAA45746338
310
1C073777EF1600607BAF6428A7DDC079D47A204EF1E1F1F0589FB054D45E02CE623B3823C317C601E589E22B1E88B448524B86A82828E32345EC18AE17214B42F8C41C6D428016D9BA31DDCB47572561E5A402E5BA4FCE55F78AF7268524AA04130F3A20BA5D1E9F9948EA48FC8F5314FDB35E21898198060034ACE5E3E2BB
310
CA34092518F275190AF65F45867FF0900AA4B81F25427414C372BF51DC29AA855C5428EE1EEDD6B849AD60F6E73475C2D2523F8A2772C840A478DED18A8C5C91B085F255DC4F54EA7AA8947354FD17ECF8FB3B4A0DE7B483CAF3A1165EE05BBA413E5C1FEF3DE1D6B8F2F3F3251C17D9FCAB48A9AAF63AC773A0E413BBC46A
310
9ADF84A566FC920E4D8C52C9769EE3301CADEEEDD92B312E02E2A7E35B7F1E7D203FE5A7D75578B06E99D0E46FFADB8FDA17ED8880390DA29094202D6F645F76F6F96409CDA05495A96E84B04A00D1A6C6C81D7F3DE9376E828CCF144EE50E364ACCE7237EA0BFB5607ED1AC3CFE73794E5B61739D14DF1743441B1AC98F00
310
ECEDE9E7301FA29755FBEFA68C91EF2B314CF510537EF1ABFC9A762496280B546F5EDAAF8A5B387D469FC9A878A92828C88608453ACEC6094DCA54111E7AD5B2663DFE2DD151B7F123B9F4FEF8EE36AB125FD7AD52A59B1B765B3E3F73E3F73DEA93875004D2AFFE3CDE9493B87A9904DD052028949041A91DC0E1BA47BA71
310
4343FD5B25E0A6A09503AFC17C790058A836A324FE31D7893512E28230332F153181C1E018E1124EBE1BA262AA428A518237D1EA7275E48C5C561BD19ED6912EDD8367DA0F31E40EEAE9683DA9257525AEA7B632B97119E17145A90231768A4F3B9120FF32E8319B015E3CBE26F1A754177D8185345817C096B0CE443A955D
310
13AC15E1FB5DEEA0239EC32A3C92241A237B0B02FFCB4F93CF2B02570C8D192E2F2A68CEEB42F12E6F8CEEFF46C251E22B4341C56FB08CCE550E7A9D6F4D6564B9EA52A83D5BF2C6E03FA19D2775E15A8A7ACF30A13C259EE7F5EF2AC3BA354F1500E1A07FC63FB4686E2F12EC69719F9ECF5FE3F35598DF2CE944008CE78F
310
0911BA5BE5D0A34E0098FF038669C26030BA9B300303039852A8F6F496341737CA7E0D2E3AAA36DE0A70AA7D9CA0D54D9AD84B18A44C9E625475E1C97B93BEBB38DCE7D227E67A2D00F531436136355F243D1FC0D712C5765754FA22FCFFAE97919161F46D6E61ACB37D83777B385889770B50765B127768443A5C4D3A4E35
310
A3151111F146B7CA116F918A049F1C272F2CD7976C69A0068773451659A97E0F4A08FE604C3FF6CE7385DB19F4D3ABC8A0D80DA8A42096AC377DB49382B36E270B6FA7570188B4B7D1DDDDA82ACA487CCA5D38BD3BD039ADBAFA4ACFF27809239B722081E2EB9F145320553D183F28471C388BC8814E5045676767AB58A8E7
310
2D1CED2CA731379515D2E533E4CF0B39DFC625F97AC4836831A4DE330E87A8126FA17EBE583D614E71E22A8DBF2825599743E0640037303E8E1B1E8EA4E1ABFA4F62907B5E4E0E5DCFDAB417C36C6848A2B8D15F1E505434C0707E16B1CFC2A1C36A42BBF55734F8F4301DDC2A5110CEE8C0747F69519265012A2174BF4E95
310
5ECD4FDE095A3ABC70536B7AD0B9D7892F81287D667C108703C9B66A221E9A0929D030008F77FF6F5D2108EF5706FC87A3069B976F7C9FC3239D13D283CDEA83597461079FEEE049B0F392889898B7D87D31F8D60ED7B56B91823A8E4EDDB36C6172ECEE42BD42B12CD67994FA0F0DFAE9389356F4CD4425A4B8AA55CBF7EC
310
D585C6A2C2316791E43D5C06841ADBB226A87FD61515FFBB0167B74E56BD7F3E90A57A97FEDCBDF483A0D6699A8C0849CAEB4947FAA90D8E332D9DEBD9F4738C37DA0CAF9CF3DAA68BCB67C420459C7A64498D6E848E5CADE92BB6901F607AA331104A67F7CD650EE169B1DAE94D2C31C2F993632259B6957E246EFE4C5481
310
107B07118607700040E5812A2A2A38DA0076875258C753F60E0F2662C748EDD5F3F3686B8FC3BD6FE631ECCAA1E8B1C1E565AD117E54893E79F4672E32F9E46B2A183DFDCF3EECB4D4D077DBEA0DA254D256045109670050129E9B9B1A9E4A11344D61497A992778095151510C4BB7EF2009B63AA4360635312E4CF668B7E0
310
D3D85A8688E2BD83B569439892ADB63461930D428E0DE42E4AC57CE48DA5CC1449530D8BD3D6A0F08DF20C8E8F570F2CFFFCEA286E30969B4654D498A58D9DA782E19FE3F002181838925592C4A1EF0B332D88B61A92C644547BED490D3A42CFFAB70E36D961F694F6307F72FF15A1C79D5B1B5CEFD353D9E2B52566DEC8F8
310
F09CB3E8359C0F68EBBB7898243E34E12A015B2685AB303C04D3A9E00671FF3DFF0A184E4A2ABEB2B666AF5B3A209C73D8EF29DCDB069C9F391EEE9DD0F74C7BCDE16F8F02E3B8816122BBEB50665775B600549D8BB33A54A6BF940C028118BC6878C79958D6784F9DEAA6E26748386FFAF8D0D0101E2847B6563F5D8DC1D7
310
8F787BE00E2C941AE12148D4A81599FE8F68D4DA5CDED75530ADE138240300EE13B0FC13A1687FED6774662C05A2B7DFB186732F0D7A93545D8B0A6390AE5054D9CB582DA846D7A061B3358B45E2B52DDE63E114397EDB7E09233A579155D795BE76102CF277F4DF8B188C4F2879BEAE3C08347124BF9ED23B128259FE107D
310
31E34A652F090B30B39E0D9AF917B76A2806135621A8A60681F16AF216514BBD02711585B5B1AE823F4B2D0369EA5B6BCB863072727FFC871CA6C9AB79A814D989057E9470A3D238BC87CBB4A0EA49AFE2B86F22E499793CAA9047080450166BDC357524561E258C77CB697F1ABB32562CF87C3B7AA12F911EF19FB3E5C022
310
22E887D08202A60A17151F5E053A86B437771088B4FEE14D652C43E8D939995D34545E12E2FF93D4E366EAD25F10CB7DED141563C3D0C447AF06078A91135FD4B9611583CB4BF3BD167F2399CEAB0E0100F8FFC305F00F1711717173138B4B48C83022295DE657EFEDD97F238ECA80F528AFB4F8D67AD4E2594B9A3AA86D74
310
87EFC313BA95745C186F0CDD84CC12DC9CB0424B42203D351FD9C0A3AF10CC7F388E0329279087386421F194F4A29464C1DEF7EF8BE515E4A199DCD5B909342598D8FE6A231F71336248D5CEC5454455C7BE383B3BC7B260FED27F703FDC39A170F3827239102F59D4DEE7FEF82EAA1A5E4BA94DCC4CC44E7E2EDE20F24244
310
E4454369D2E87C3F823F193FD4FD27E1C23984B01898D15ABC20711A8A558054951A6AE280096BA36CBA439603B7B0B4C45F248C14B2383B4B5CD8ECECE4FF859AD4A6CA2326D020EF090F4041D28DB66E5256B56232CC52829DE8060BAE6BBF37D4B7469B822454FE93210A3E8D15E69FFCF01123222611C51C4FD0A041A0
310
CFA2471CF6BE38D2B20FA4C3525B5B8B586759475CF80ADFE67A284AC24651E52B8E683D24C2622642F27E7C3C22783BCF63648BC398BD6CD0D9C97E7E7E3EACB6126DB7A6C1FD9F1031302EE67ED96F22B77C7CA0239BB324207559B105E4693EB26EC46182A92C9C0DBD24F29B31C5C5AC1F84300E0E17CEEAC15F5736FA
310
4A98971E2F1423BFCD68D4BBD5F86E74B40A369F39507C88FCDB35D2DD8DEBEA4AF999E23CF2816D204200DF6E611781B9884C1AC8888B4DE397320472959434323A5A36B22A8E1F721A270DF3BD65E4A31C11FF048AFB0D8B7B6881423793963A23CFCE935FC189ED36FAE35C46DA3574C979E4394BE52084F3081837BE03
310
3396D2EBD80F1F691B273F660D2B32FA27A33B1DE4ADA5F0FA4651511102DFA410DDA86E065272CA314D5249DF91B06BB92807B28EFD54F08F7B525252782CD276DD02E6B0319B13DF87B1F6361AD6B28FC0D711CF445429B9E5A433CD493051C49A9E03DDB1B147D880253514A5DED88009018620EE229101C041950E2D8A
310
A8E1F5F5438E0C0C0C60EEDEE9E3E0C051948C69F84BB7B2A48A1F3C8EB9E6864687F4F4F6F6E2FA87608ADAF9C5E117B7C1A737E710769DA1D15ECE6A84502AA855398712D5FB51BE92E4EF824969CE18278798AC303C2C7980DD2500ADF8FB1E6D6C2FAAFF9987178923334A244758BAA01A9A1B70FA5097D01E1CC2A58D
310
AD0EC94CE6430AA9B0C10D75E3C6BAC670EFBADEE1607739CE0FC18A2587E3EC3058562014C64219C69BC269082D5C2F4A659278D585755912176D78A1B641719C2A394CED495A1AC5D583FD2F5EDD93308EA7EAE8A6DD396598BDBD3D4CFED62D18A5BDFDE0DD5C80D1A89BA62697B131AE7CE9A6594138582F1B37D68F17
310
49AC7CB67A70695D48A4A056AC1FBD4E82358CEAE38F54B95A9016F9000F9879C0D9D131768635CA798895F27D6F1614F11F2838A83611AA51C9A3DDB539D42979C29F10465655C17BEC3E2760B80DCBF609198C7B171A531905F3EC218D696025975E986C6B4C666666787271F202805577DD5A3EF0CAFAF91B62DC4B2DB4
310
217A7606282F31D8DDBC290593BAA93EA6353AFA9939B877978481E15CFC9F2755CDC00C538F63A4BA3E80AE009B73CA0185687D339A507D165B74290D6EE46D5C58148F020C3668ABE9EF2F7549170DC80DB41FFC1D678FF19AEB10C7133832B104B80F691B3138F97A92D26E551F1F110400D45AC71A9B9AC41A1A1B1DAE
310
ED0B0810638EFFB511D46B121C6FEA0F38CD00E03CFFEB9713FE1F9C263E4DDEC160D0497FA9A132BA608584057FB15380825DE6C7FC3C667EE947D488A09898D8E939C4953BF4EC9836344D2CC6B2971B2A21A572B06096F4982D2CC7232D46E8EA69DC83722E267754D777F97F96D5DA74E1E75178084D0E70F12AD33E5F
310
71EF2AFA599B2BEBF60A5BE475F444F240CBFE8143C334E7ED9150FEEFEF7EB020C4DBED388DD1D6A167A76F3CBF119B578AE8CFA7736ACAFA4440A1C47185638A0D2F3EB5BDDEFDA958FB13CE4AA4923D5BF840392D45544329525749734866684BF7F8D9D54D892E19BCA9F829A0F8BFCBEEA6CFDFC61D74EA1A645ED7A1
310
FF241739F15694BD835B66FEC5677E40FE69BD3F91AE402F036537218A401CB0828604AD189E575015C6F3F6BBC8AC79CF6C70653847254B31551EFCBEB5978B9DB85D58D0FA41A9DFE9C624834AA04949D24B5AE6D299E072D152D12097920F14AA92C31C3B97E28B6C2E6E9C23D63043ECBBC0A60FDF5BD0C33C127EA8A3
310
308B8B6AFFEB28B4455BF6E7AF4FC6222728357EB8E46E85053E6A8843AB23295BF838ABDA94658FEF3F832F147046B4ACD6F7D48E8FCC9618582961C898D1C7A253C91BFECBDA6BA18A1FCF70755DCCEE2222F41B76D23CA98D0CB3D95F0CF66D57FFF65E2A90F5DF40FC3187621E981BD0BC1D992787212688976B94A8F0
310
C6EF646624B570B78E068826F87CE27041A95C9A4871FF65CC17FCB1639629AD6A9517000D63AC231F3D741CB8430777E7ECF80CE7A3F73C0F162F7E56AA71F4DA80A33CD6ACEE78E2C11FAC03DAFCE929B106F8F6B3ED2DC71FF994BD9CEF4E9A94896EF1B6E2B7B4978168BCF0847A3D2A4F1B0500B926E634B174548E9F
310
BAD27153FB5FC36799B1E6C7C38A94E1F9E996796D7B485E635D5287A2AE76FBD11A341DB3F8F810385BB7296391973DC6C37C452A9305AEBBE0CDB6C566DB59FE60C8E94B1FD090354BF51439FFD1B48D725228FFA88C84F686F547107A7A235665A4593B7C34D748C1AC8D56DD5DA861EEFBADDECBBD65117E65851F9035
310
1AEB65F0EFCFF4BCFEF24CB7A5879699FAC437A7AF9099186CF006BB923A59E37D7A36A29FD8D2CBB914A5E9D0A8FD212FBF796AE9A67958FF1D5D8B85F78F96219D4714EB919929241B6C018AAE0C02069F8D919961EC5DDFBFB7573E3AC8E08BFB7C8534BE6DE045B3CD63DBD71F7638BA2309CAE398EA3A7D8F98BBBC7A
310
EB367EFA5CFA27A9F8F2F52FE878058E6209C026453F8E7E8A237DFC389E9590F6059B397CFD65183BBF936E86896612A5B5FEE49DAC8455D026218AFEBEC12B3523A45B57B82C9C97E02ACFA1184DB18E48CF615DBF39C3CC6F0B4AE6BBEEA2E39D944E290302FA3DE33FA7E40296E2EF7BF1CD855BBECFAD0FD622BEE974
310
6FC4FDFDE545AE6E3BC234CADF83A0FB76DFB145BF3828AE3436368AC24989454F8FF70A177672C711CAA1A76107218CF948CA01F873520E7A2B118EBB161ABAD432932029628B6761590C98AB590C8C8C79798CE9F715BA696E839E9131A4BB68BE923F1747FBFF165331FFDD4D05997ACD168F12CA75348DAC04C7F509FE
310
83898A8B421181AF492861CE81E4A2DD0A30850CFA95E05F097FF70F9E777310D584A75BA7018922E271DAB1D785671157685B7D383D3E074DDB4F1E44EF04B07BAAC75A062077C54B9752C738C9D804D402E02851F3F89605AF189738C18C021D2139EAF72513824E10DDD3047BACC8521ED7E98B257D1166903B1B08FA6F
310
918FD7E162913FEC7D0EF4787E29C35FBA8C6E2C9C20E9AB30AE42CA2A01A090E7D010C1B5BF9CEE2A304BF3A987FB40D836979B79E18D70F257DA61E808472DD85B82761825779D6B90CAEB0F23360C6F80A7D7D77545E95B3DFF0CF96A827F9B5BCECD2C9698718417EF80FEEDEE938AFF55859D0D540B7FE09435583A6F
310
04874A0C7E8CF234DF4879722000167F5872CEC6BF3EF7E5A8CC8121E6A359227C8A29C95212F9F735BC72A887D56B8F309FC525BFB4FD767AAEC4AEFF249CFBBD2DE1AB9969A6155C7D8DABC307E47324C1F916C7BCFF40ABA5644E9FFB9238D19ADADA49D9610F01ABBA57E4DFCBDCCBB2B93C8953206C91DE01B0E2651A
310
6D6C31721915B31F7B7CBCE55466F6D70402788FA91D73BE4ADCBA99A35F17D6B83383704917D6833F0FA3CD45C926ADB8BC17999A4A0AFBCE2541F7B8CF4C2F5FBA611B3E626D64407CB32C122DFF4EF8674D6EDBB86C8F7C6A16D50FA685E2CCA34F8F7D1D8265BB0042E9D7F1F666F7BE5FAA5184DF58E12122A42EF02F
310
461B3F369AC746F96528AD208512AB56844CF75B97F352DF7995024FB02855385854F3798670D01CAC771AC3E1889EC25F61A20C1F8CAB46898817F9C47E2CDA1F286BF2F358298709FE567C91133E2638C8B53975E753EA8BFD3578B5F7186B7BF084EBA3F77BAC3132A5779902EC22AF2D2E79F42D324E083386DAEE9810
310
D1B44A5DAA54513C7A71E52A4AB9257D975B621308FE4D2141CC3DCFE946C154A3C1DFCCA7629EC69ACFA831634ADDA93C0388D2A9A2DDAFCF957C6995BCE7FBB6DC4EBAE79E63EB08E9A25F52F67076F7093CA545CA3053B5BF576DEAD4E0017143C5F759F32B2D6F145B52B67B48909B7C7FCA6586EE385A2189C16932CB
310
6DDFD9152AE317C430492A578ED27B72D85D40C7C93C097939E1B50F4D67F05334FE9DC362C30B7FF561B95259138ECFD9274C8D695C31B14D4EAA9F3D7FA8DDF652F8C5DEFA23284C799B7D94416DEE81E05A866302DC70192A5368EA65E1CED8BF107A1E2D3119A71E85DC1A7B0C1E93274CE04DD0F2ABC8AC7C987FDB00
310
2B6F81757B43502EF7A0D92E416494FAEEA4C9C090CD9557AA4D532F4996A272B94355C5A0E4974EEA9627476F30809B94D8D8D860062E02204643BEC7D0438AF800FC7E2B26955D595421E83C69E1A07E0E3122285835F014AD538188CF9737CE76D464A353FA55A001AB2526B84E985083693BC76FE211CA1D000679C889
310
E3C009832C87E1AC2EDD05C302557422DF0800E316FCAC86978A371F025A6C7DAA9F333E7BD160403A1A06EA75AA9888FF01504B03041400060808001659844D51464CB48900000043010000360000006662782F35343244464145412D444131382D344137392D423330342D3245384143374445334636332F646972656374
310
6F72792E786D6C9D8F310EC2300C45AF127987122606C71DD918B841D4B851A43646695A717C52A85029031293A5A76FBF6FACEF7DA7264E43906840EF0FA03836E242F406C6DCEE4EA06AC22492573150D1F66C60C640E8938CB705396EEDD86DE9B5042FE27813D640EA63BB001C722AF6E55CB61E4863F58284D5D3F53D
310
D715CE1C3985E63FD7F1B7EBDD617E9F1E504B03041400060808001659844DF4BA84813D070000211C0000340000006662782F35343244464145412D444131382D344137392D423330342D3245384143374445334636332F6F626A656374732E786D6CDD59598FA33810FE2B16FBB2FB4080907394CE28578FA2D99E194D34
310
AB7D430E71D2DEE69281EE647FFD968D4D304D12E692469B963AC49872D5577731797B0C03F44C584AE3E8CE703AB68148E4C73B1A1DEE8C3CDB9B2303BD9DA2098BE3ACB2CF40110EC99DC1978DE9E4C0E23C914B3BB2C779505FBD9FFF8D529F44C4407E80D3F4CE48FD4712E20ECEB37847D2A7CE0E67B873D81F3B4EA7
310
D8A8933D309C3CD68E4A30235106ACC27A045424078EFE1344B2A6138B6FD0B6B9EDB675AF6CB384E03AA3344A331CF9AFB8AA1DD7BDC055ED38D7E92D57DDFED8ECF77AAED91B741D737E3F5F9ACED0B51783C5623C5B8D0D349D6CE3382815909068075A3C19536762F13BA5F8128526BEFD388A882FD16CDAB023922E25
310
691D130D584788565148216B65C16D29FC856DAD40D158D2D056C2A9EFAAF5C6DB7F0084B48D95B294702B4F3306BA96D817FE604FAC6255D30B4D518833C2280E5040B70C3350106C2D14A491E1DEC249218E99D0A2A257E5150CFBB62F3571B9CF8380FBAF31159EE6813F922C159CD17F093B735F3D0D780269731A6523
310
296C764A80C4786289C5E29EDB95370B20D13EC007B01610936F72BB35BC163C16AC97C6F4FDFDF6B8E1F1A1F9F084C5096119B73CE1CCD2EF94062BA605C6D7029402575D7767543E03F41F00F992173401CD317AEC1D7B4A7686A3741FB310B4836C64DAF0CF46FCF2D5D5C42A1F9E22A4C5CA4B9882DBFE204C3531B4B3
310
2B904E27CF60F43173A5701B1F0760D30F34E27E0E868282189620DEEFB74763BA86600A8BF0140E407AF89B58FC12C1574107E24D4D434DE1B785A294C3D4FDECACAB7760338CFAA5AA34192FE1DBFF21F8CE969BF79B9CEDB14F1EA4632FC99E46348364DACC9006BAE6F25FD61F8447CE4F7FE253D507B55D3E9C738879
310
E068D0CB46EA0509C5002B3C0F17AA112B0F14DC3D087044E23C95EB4D81CA8F839879DB9357F870E3597F2923280E9316D018CC20BBFB8C261C14632AD55546C2CE19A7144C0C3369828742ADDE360F130F87711EF158FBDA16EB7C40A0E1A60854053565D9CA6D15D91DDDEFF314A25723C98506A4746845B830F11E04B2
310
267E19D9330C59348E3C0A4918BCA5F104ED8012BCEB3CA724D87B3408F2D0DBD300128917E2E402FD96125453D71339BDC46CD74850B72CE594CA8638E0125805924A5745D0973A65E499F23A532434950EB41DB21035A6BD0BF982A78A064095311686EF0E07F3FBE5CA9CF7E6432899ECAE395A8C17E670B85CAD56FDE1
310
CAB5BB753E55B8AA263C5025AF7334FFCB1EF3701B611AC00D2E36DE256FDE8AF47967416CB4FABDEEF27EB69A99CB9933327BB3E1D89CBB76CFECAE46B3059CEFDE0F5C8B9134CE994F52AB6BD99E32C9243A5CE24A71F73A88425D733BDB297DD585F9FF06D177F5A4A029F1570DA265EC6AA808DB0651FE683D8462FF89
310
E728CF87B2AFD17D6A41B4CE47539CFBCAB86C775C5B7C1C67DCB5C7DDD178501AFBD5402DCEF9EE38D724810F8D679E7971827D9A3527D41A2E2DE3F457E5968EEBF411A053FE2F0FB99E67E4211E0DF181787BCCDB8486C0784B82C61C7608E234A51149459BF7AAFCABD1B43B504DE939B7C10869EA8524C3DF627FA26F
310
A8D934C4E6C0838634E323819B554169D0B205B94491B7BF90B885FC272FC5611214ADEE2D0C9C32A1A826A7C9E238D3FC8867B0370F679EBD236272718B7AC9BEAA0F1AB556A73EFE66F217E05175CD4F84471DD1BE74EAF49D31FF8C20A80CFA8E3BACDBE225ACD451196FE4821C5A4FFFE4BD107A786C5568B6D349A564
310
2B8AEA8C84D0C7E22C67ADFC75D0B75F1D24E342CD212A277D6571281A38D5C2017AA283BB54DE568E813A944630E86A25C82B291AD5227421867A7C76F5157E7DD531AA54BF3B5EFEF48AB9EA7CA198FEDCC601AAE52200CBE8A3D5D48D55B7560FA52F38F321906EC4B739078FD891DDB931D3C83595E8AA3EBD553DAF79
310
400D61648B799C7DE017C1670CAA86F639B564D16615EB6B9ED83A309D3EF3A131ADD3FAF86E53A3022BAD9FFEC431222F350A7275C1BBE12BA4BEACCF4D7F8D8294E8CBFACAE3BF4447A1145899A3C138388D030A5379B243071243F686B1438B6E8385241559198C570629F54AA0C5D3CFC55035C3DB403DED3F62984C07
310
B217CB7D988A42C6BC33E43AFA0DE6A07C1429A6539D2768C3640C3350CEE89D01169B51E8B63A5B986789E9A1A05E9B578263E3E8C0F37DF154F9FBFC184707A2D259AE724F1B5CA4649A3341619B88170550F51537A6936F175DB183700697DB3C2B85392F9CA59120A83702857030F67B92F01EA1A0B82E97D3117B3448
310
5A8DE6AFDA4141D5CC303B88F97A05EFD9F293C547E3EB8F2809F20357E7B5EE57A364F2AE3BC88B29D4040C438A99605E432EDE589F580CEF9842744FC108D0EFC7D1E00F6B1187611C154BD64CBEA9429B4778EFB4B3D4CC0FDA78DBE95B620A20E7FADE16A7A48377E9132C806A19E5C3D10262CD00CA685A3100A511AE
310
0B784CDBBF5E22591B552624D5B0CBE111437D048EC45FE670B7A96EA84C20C117802B71F37CA11626168329F8F43F504B03041400060808001659844D4D5C3907DD000000530100003C0000006662782F35343244464145412D444131382D344137392D423330342D3245384143374445334636332F7265736F7572636573
310
2F322F636E782E786D6C4D90CD6EC32010845F0571373F910F5684C94BE4D44B44F1C64501D6E2A74ADEBE9052A9A75DCD7C5ACDACBA3C8327DF90B2C3B852C90425102D6E2EEE2BADE53E2D945CB44A88E51F4649340156DA65AAD59EB01E43DAE06EAAEFAA77F1314471DB214272F676C49D12EB4DCE2BCDF60B8261A616
310
DC203FD8668A619225C858938576A2B800E3844D600A6C549F845C26799AC47C95F22C96F33C7F28DE49AD3E11FDE05D2C90F02016DB125B1EA178B7B5AAC90DA69768C65F38D6C229DE6CAD7249ED03032BAFA3612E981DF81BF975B5E2BD621BEFFE6DF677E81F504B03041400060808001659844DFF15A4A45D00000080
310
0000003A0000006662782F35343244464145412D444131382D344137392D423330342D3245384143374445334636332F7265736F75726365732F636E782E786D6C4D8B3B0E80201005AF42B6F75B59F0390B113044D83508C6E30BC6C26AF226F3B8BA6360974DA7271430F523308B2B198F9B80925DB700539227A2FCCB80
310
A18E5640D320F996A81C9F32D6E9129A0D1EF74FCE750E6D57BC7165FBCA07504B03041400060808001659844D5D78132A3E01000046050000300000006662782F35343244464145412D444131382D344137392D423330342D3245384143374445334636332F636E782E786D6CCD944D6AC3301085AF22B4F78F421621C80A
310
64D1137451BA93E589AB46D618695C9ADB574A9DB4A5A47411487662F406DE37F318B9791F1C7B83102DFA868BB2E60CBCC1CEFABEE113ED8A15671B2503227D9371E6F5000DCF65AE641F701AE752073B3DB95C75D6EFE7A2260AB69D082267C6E9181B1ECD0B0CBAD4136107715F769A7429CA0011A76020F5931D60EE37
310
013441C7D5A216AB422C8A7AF928C4BA5EAD97CB675965A5922DA29BF5D613041C99C1F4F0C94C2DABFCADE414ECACC9045C7D392B5BEB6595FE958CC9ADEF671D1DC6AC1B47678DA634A60A0D011549047A90D5A758C92AF3FEA07ED83E9D1CB0CE063084E170A301884B03381B2B5312FEC77F14FE8D8DED6BC2BDD5B62F
310
C2CEB6AE867A4A6B4C71FDBDFF9422ED7B777FA13F1BBB7EE6D329216BEE0FF9E4EB4AC4D5F1E4A5A5E70BA83E00504B03041400060808001659844D7374105A7F000000A30000000B0000006662782F636E782E786D6C4D8CD10E822018465F85FDF7940A256D80A3C0F77089CE85D0485A8F1F342FBAFAB6B3EF1CDE7D56
310
87DE36BE96E005D4870A90F5F7302E7E1690B60933409DE43184EDEF06C80FAB155030483EC7909E3B1AED342457A85BFC638727DAE85E1985B5AA19A6AABDE02BA9286E0C53B7561BD29F49368E45C9F3EBE52D79F905504B03041400060808001659844DA6D797065F0000008200000007000000636E782E786D6C4DCB3B
310
0E80201045D1AD90E9FD7516806B51190811670C8A61F982B1B0BAC9C97B72CA7B1037C6D3332918DA1E04D2CAC69353902EDB8C20262D23F3F59B81A079470595414B17391D1F19B4730A5583A7ED43BBE4025D9592775E5ADFFA01504B03041400060808001659844DECFD112DA800000026010000130000005B436F6E74
310
656E745F54797065735D2E786D6C7D4F4B0EC22010BD0A61DF525D18634ABB506FE00510A79458060253536F2FD89D5197F3FED3F68B9BD80362B21E25DFD40D6780DADF2C1AC9671AAA3D677DD75E9E0112CB5A4C928F44E12044D22338956A1F003333F8E814E5331A1194BE2B0362DB343BA13D122055543278D79E6050
310
F344ECBC6478EDCD76CE8EABAE5449AE4298AC56946789C28AAFBEABC53F3EAF09A84A1441B91F0101CD4780756578C173A578FFDDBD00504B03041400060808001659844D3DEE336E64000000790000001B0000006175746F6465736B2D64657369676E2D7061636B6167652E786D6C35CBC10E83200C00D05F21DCA56CA7
310
6D41FC96062B120735B69A7DBE268BB7777961F8D5AF396893C2ADB70FE7ADA196782C2DF776D7A97B5933C430F15651E5469C55D70F80A4992A3ADC954792C525AE70A1E4D6AD9816CC044FEFDF01FE3FDE907802504B03041400060808001659844D7DED9D37F30000008E0100003D0000006662782F3534324446414541
310
2D444131382D344137392D423330342D3245384143374445334636332F7265736F75726365732F322F636F72652E786D6C8550CB6E833010FC15E4BB0103A94C641C1150BFA0A7DE2C7B43AD041BF951F5F36B072AB5A79E76353B33BB3BECF2B53E8A4F705E5B332052D6A80023ADD26619500C374C5171E1CC591B7ED150
310
61C40A03CA30E26C71366E0724AD0960326AAC820314DE4340857CA466405E7EC02A4A114362F87BB90979170B94A4DC799CC5A8D521D52AB9E99B068778435F4642FA164F2DE971D74F274CC7538DBB2BA5CD345F5FE7796455167316F4FAB35D3A100154D2D78462D2E0BA7B23E45CD373D7BDB32A3339F3C1A59F8FA5F9
310
BB4467D58EFE718B9BFADF2D6A13DAE670DB151E71928E7B0E38AB723AA93CA34B3527C9BF01504B03041400060808001659844DA4FD744AF8000000960100003B0000006662782F35343244464145412D444131382D344137392D423330342D3245384143374445334636332F7265736F75726365732F636F72652E786D6C
310
8550CB6E833010FC15E4BB0103A94C641C1150BFA0A7DE2C7B43AD041BF951F5F36B072AB5A79E76353B33BB3BECF2B53E8A4F705E5B332052D6A80023ADD26619500C374C5171E1CC591B7ED15061C40A03CA30E26C71366E0724AD0960326AAC820314DE4340857CA466405E7EC02A4A114362F87BB90979170B94A4DC79
310
9CC5A8D521D52AB9E99B068778435F4642FA164F2DE971D74F274CC7538DBB2BA5CD345F5FE7796455167316F4FAB35D3A100154D2D78462D2E0BA7B23E45CD373D7BDB32A3339F3C1A59F8FA5F93BC41D781B9D04CFAA7DFAC7356EEA7FD7A84D689BC3755778C4493AF239E0ACCA29A5F28C30D59C28FF06504B03041400
310
060808001659844D1790CD80F2000000B1010000310000006662782F35343244464145412D444131382D344137392D423330342D3245384143374445334636332F636F72652E786D6C8D50CB6EC32010FC156BEFD8C6A68D1B6122B776BEA0A7DE10101725068B47D5CF2FC4AED4DE725A343BC3CC0E3D7D2FB7E24B39AFAD
310
E901973514CA082BB5997B88E1823A284E8C3A6BC31F1A14862FAA870C03A3B3B371DD21614D5026A3C64AB583DC7B15A010B7F4E8C18B4FB5F092C79018FE5AAE5C5CF9AC4A5C6E3C46835E7EA5C2291E9404D6D4B843B8413579C7F8587747423E6895998CC6A8E56EA56572D717AD1CB027D28CE7611AD038242D190E2F
310
E8B5AD096AA66E783B8C537B7E6E6995C58CFAE0D2CDFB27F9BA47E59BF05FE6B8CA07326B13DA6637DC141E184E79EE0B46AB5C601AF776D3CC65B31F504B03041400060808001659844DA4AA23CC53010000DD0200000C0000006662782F636F72652E786D6C8D52CB6E833010FC15E4BB01135291C838CA43FD829E7A73
310
8C43AD808D8C8DF2F95DF350CAA1698564ACD99DD9D991E9E1D136D1206DAF8C2E11895314492D4CA5745D22EF6EB840D181516B8CFBD18622CD5B59A20023466B6B7C3743C268277540B5A9E40CF2BE970E45A2814B897AF1255B1E73EFA0A3BFC71D17775ECB98C4531FA3DEAB6AA6AA0AD4D44D498B5856BC1D09D96DF0
310
79437638DF9DB7B8386E539C9F8A223B5F4EEF97CB912681CCA853ED325D58C99DAC809F9202930CA7F90721FBB4D8E7F9274D4227A3BDB3B0F33C346C87D8EDFAA0C984AFF47C57FDADE795769B6CD69B183D6204EC8D054693900FFCC6F0D619C260C8CFF16BB3AC70076890C2199B43A532FE591A78E32548A7D1F8D164
310
AA82F228F09B4EF642E7B50604C5750DD6B883EBD5BB307DEDA993160FEE1169635BDE3CCD4D169FE773D06AA5852E4C63EC7FD8CBAA4B98497898EC1B504B03041400060808001659844DA99697CF06010000B201000008000000636F72652E786D6C8D504B6EC32014BC0A628F6D6CA7221126726CF5045D754781382836
310
587CA2F6F685D895DA5D570FCDE7CDF0E8F97399C14339AFADE9202E2A089411566A337530862B22109C1975D6865F32080C5F5407330C199D9C8DEB0E096B8232193556AA1DE4DEAB008198D3A3835EDCD4C20B1E4352F87BB17271E7932A70B1E9180D7AF9B10AA7785012B2BAC204E11A55ED1BC6A78A9CDAF69D9659C9
310
688C5AEE515AA6747DD5CA250B79E9313E366868F011B5C7E180487FA8507B21A41EC6CBEB38F6B4CC66467D70E9CFFB92D43300CF1F3997961BC5E887B5F32E48A524B066FE82ACA26526FE948EABFC47696D4253EF0B3787870CA7424F2205E70BA6F13C6F9AF9DAEC1B504B010214001400060808001659844D00000000
310
00000000000000003700000000000000000000000000000000006662782F35343244464145412D444131382D344137392D423330342D3245384143374445334636332F617474726962757465732E62696E504B010214001400060808001659844D000000000000000000000000350000000000000000000000000055000000
310
6662782F35343244464145412D444131382D344137392D423330342D3245384143374445334636332F76657274696365732E62696E504B010214001400060808001659844DF270F13306000000040000003600000000000000000000000000A80000006662782F35343244464145412D444131382D344137392D423330342D
310
3245384143374445334636332F747269616E676C65732E62696E504B010214001400060808001659844D88E57597CD3F0000904100004200000000000000000000000000020100006662782F35343244464145412D444131382D344137392D423330342D3245384143374445334636332F7265736F75726365732F322F305F
310
67656E657269632E706E67504B010214001400060808001659844D51464CB4890000004301000036000000000000000000000000002F4100006662782F35343244464145412D444131382D344137392D423330342D3245384143374445334636332F6469726563746F72792E786D6C504B010214001400060808001659844D
310
F4BA84813D070000211C000034000000000000000000000000000C4200006662782F35343244464145412D444131382D344137392D423330342D3245384143374445334636332F6F626A656374732E786D6C504B010214001400060808001659844D4D5C3907DD000000530100003C000000000000000000000000009B4900
310
006662782F35343244464145412D444131382D344137392D423330342D3245384143374445334636332F7265736F75726365732F322F636E782E786D6C504B010214001400060808001659844DFF15A4A45D000000800000003A00000000000000000000000000D24A00006662782F35343244464145412D444131382D3441
310
37392D423330342D3245384143374445334636332F7265736F75726365732F636E782E786D6C504B010214001400060808001659844D5D78132A3E010000460500003000000000000000000000000000874B00006662782F35343244464145412D444131382D344137392D423330342D3245384143374445334636332F636E
310
782E786D6C504B010214001400060808001659844D7374105A7F000000A30000000B00000000000000000000000000134D00006662782F636E782E786D6C504B010214001400060808001659844DA6D797065F000000820000000700000000000000000000000000BB4D0000636E782E786D6C504B01021400140006080800
310
1659844DECFD112DA80000002601000013000000000000000000000000003F4E00005B436F6E74656E745F54797065735D2E786D6C504B010214001400060808001659844D3DEE336E64000000790000001B00000000000000000000000000184F00006175746F6465736B2D64657369676E2D7061636B6167652E786D6C50
310
4B010214001400060808001659844D7DED9D37F30000008E0100003D00000000000000000000000000B54F00006662782F35343244464145412D444131382D344137392D423330342D3245384143374445334636332F7265736F75726365732F322F636F72652E786D6C504B010214001400060808001659844DA4FD744AF8
310
000000960100003B00000000000000000000000000035100006662782F35343244464145412D444131382D344137392D423330342D3245384143374445334636332F7265736F75726365732F636F72652E786D6C504B010214001400060808001659844D1790CD80F2000000B1010000310000000000000000000000000054
310
5200006662782F35343244464145412D444131382D344137392D423330342D3245384143374445334636332F636F72652E786D6C504B010214001400060808001659844DA4AA23CC53010000DD0200000C00000000000000000000000000955300006662782F636F72652E786D6C504B010214001400060808001659844DA9
310
9697CF06010000B2010000080000000000000000000000000012550000636F72652E786D6C504B050600000000120012002D0600003E5600000000
  0
XRECORD
  5
17
102
{ACAD_REACTORS
330
12
102
}
330
12
100
AcDbXrecord
280
     1
270
     1
271
     1
  0
XRECORD
  5
16
102
{ACAD_REACTORS
330
12
102
}
330
12
100
AcDbXrecord
280
     1
270
     1
271
     1
  0
XRECORD
  5
18
102
{ACAD_REACTORS
330
12
102
}
330
12
100
AcDbXrecord
280
     1
270
     1
271
     1
  0
XRECORD
  5
15
102
{ACAD_REACTORS
330
12
102
}
330
12
100
AcDbXrecord
280
     1
270
     1
271
     1
  0
XRECORD
  5
24
102
{ACAD_REACTORS
330
22
102
}
330
22
100
AcDbXrecord
280
     1
270
     1
271
     1
  0
XRECORD
  5
23
102
{ACAD_REACTORS
330
22
102
}
330
22
100
AcDbXrecord
280
     1
270
     1
271
     1
  0
XRECORD
  5
27
102
{ACAD_REACTORS
330
22
102
}
330
22
100
AcDbXrecord
280
     1
270
     1
271
     1
  0
XRECORD
  5
26
102
{ACAD_REACTORS
330
22
102
}
330
22
100
AcDbXrecord
280
     1
270
     1
271
     1
  0
XRECORD
  5
28
102
{ACAD_REACTORS
330
22
102
}
330
22
100
AcDbXrecord
280
     1
270
     1
271
     1
  0
XRECORD
  5
25
102
{ACAD_REACTORS
330
22
102
}
330
22
100
AcDbXrecord
280
     1
270
     1
271
     1
  0
XRECORD
  5
955
102
{ACAD_REACTORS
330
954
102
}
330
954
100
AcDbXrecord
280
     1
102
ACAD_ROUNDTRIP_2012_MLEADER_STYLE
298
     1
  0
XRECORD
  5
957
102
{ACAD_REACTORS
330
956
102
}
330
956
100
AcDbXrecord
280
     1
102
DISPLAYNAME
  1
Imperial24
102
FLAGS
 90
        0
  0
CELLSTYLEMAP
  5
922
102
{ACAD_REACTORS
330
921
102
}
330
921
100
AcDbCellStyleMap
 90
        3
300
CELLSTYLE
  1
TABLEFORMAT_BEGIN
 90
        5
170
     1
 91
        0
 92
    32768
 62
   257
 93
        1
300
CONTENTFORMAT
  1
CONTENTFORMAT_BEGIN
 90
        0
 91
        0
 92
      512
 93
        0
300

 40
0.0
140
1.0
 94
        5
 62
     0
340
55
144
0.25
309
CONTENTFORMAT_END
171
     0
 94
        0
309
TABLEFORMAT_END
  1
CELLSTYLE_BEGIN
 90
        1
 91
        1
300
_TITLE
309
CELLSTYLE_END
300
CELLSTYLE
  1
TABLEFORMAT_BEGIN
 90
        5
170
     1
 91
        0
 92
        0
 62
   257
 93
        1
300
CONTENTFORMAT
  1
CONTENTFORMAT_BEGIN
 90
        0
 91
        0
 92
      512
 93
        0
300

 40
0.0
140
1.0
 94
        5
 62
     0
340
55
144
0.18
309
CONTENTFORMAT_END
171
     0
 94
        0
309
TABLEFORMAT_END
  1
CELLSTYLE_BEGIN
 90
        2
 91
        1
300
_HEADER
309
CELLSTYLE_END
300
CELLSTYLE
  1
TABLEFORMAT_BEGIN
 90
        5
170
     1
 91
        0
 92
        0
 62
   257
 93
        1
300
CONTENTFORMAT
  1
CONTENTFORMAT_BEGIN
 90
        0
 91
        0
 92
      512
 93
        0
300

 40
0.0
140
1.0
 94
        2
 62
     0
340
55
144
0.18
309
CONTENTFORMAT_END
171
     0
 94
        0
309
TABLEFORMAT_END
  1
CELLSTYLE_BEGIN
 90
        3
 91
        2
300
_DATA
309
CELLSTYLE_END
  0
XRECORD
  5
92F
102
{ACAD_REACTORS
330
92E
102
}
330
92E
100
AcDbXrecord
280
     1
102
RTVSPost2010Prop28
280
     1
102
RTVSPost2010PropOp28
 70
     1
102
RTVSPost2010Prop29
280
     1
102
RTVSPost2010PropOp29
 70
     1
102
RTVSPost2010Prop30
280
     0
102
RTVSPost2010PropOp30
 70
     1
102
RTVSPost2010Prop31
280
     0
102
RTVSPost2010PropOp31
 70
     1
102
RTVSPost2010Prop32
280
     0
102
RTVSPost2010PropOp32
 70
     1
102
RTVSPost2010Prop33
280
     0
102
RTVSPost2010PropOp33
 70
     1
102
RTVSPost2010Prop34
280
     0
102
RTVSPost2010PropOp34
 70
     1
102
RTVSPost2010Prop35
280
     0
102
RTVSPost2010PropOp35
 70
     1
102
RTVSPost2010Prop36
280
     0
102
RTVSPost2010PropOp36
 70
     1
102
RTVSPost2010Prop37
 90
       50
102
RTVSPost2010PropOp37
 70
     1
102
RTVSPost2010Prop38
140
0.0
102
RTVSPost2010PropOp38
 70
     1
102
RTVSPost2010Prop39
140
1.0
102
RTVSPost2010PropOp39
 70
     1
102
RTVSPost2010Prop40
 90
        0
102
RTVSPost2010PropOp40
 70
     1
102
RTVSPost2010Prop41ColorIndex
 90
       18
102
RTVSPost2010Prop41ColorRGB
 90
        0
102
RTVSPost2010PropOp41
 70
     1
102
RTVSPost2010Prop42
 90
       50
102
RTVSPost2010PropOp42
 70
     1
102
RTVSPost2010Prop43
 90
        3
102
RTVSPost2010PropOp43
 70
     1
102
RTVSPost2010Prop44ColorIndex
 90
        5
102
RTVSPost2010Prop44ColorRGB
 90
      255
102
RTVSPost2010PropOp44
 70
     1
102
RTVSPost2010Prop45
280
     0
102
RTVSPost2010PropOp45
 70
     1
102
RTVSPost2010Prop46
 90
       50
102
RTVSPost2010PropOp46
 70
     1
102
RTVSPost2010Prop47
 90
       50
102
RTVSPost2010PropOp47
 70
     1
102
RTVSPost2010Prop48
 90
       50
102
RTVSPost2010PropOp48
 70
     1
102
RTVSPost2010Prop49
280
     0
102
RTVSPost2010PropOp49
 70
     1
102
RTVSPost2010Prop50
 90
       50
102
RTVSPost2010PropOp50
 70
     1
102
RTVSPost2010Prop51ColorIndex
 90
      256
102
RTVSPost2010Prop51ColorRGB
 90
-16777216
102
RTVSPost2010PropOp51
 70
     0
102
RTVSPost2010Prop52
140
1.0
102
RTVSPost2010PropOp52
 70
     0
102
RTVSPost2010Prop53
 90
        2
102
RTVSPost2010PropOp53
 70
     1
102
RTVSPost2010Prop54
  1
strokes_ogs.tif
102
RTVSPost2010PropOp54
 70
     1
102
RTVSPost2010Prop55
280
     0
102
RTVSPost2010PropOp55
 70
     1
102
RTVSPost2010Prop56
140
1.0
102
RTVSPost2010PropOp56
 70
     1
102
RTVSPost2010Prop57
140
1.0
102
RTVSPost2010PropOp57
 70
     1
  0
XRECORD
  5
92D
102
{ACAD_REACTORS
330
92C
102
}
330
92C
100
AcDbXrecord
280
     1
102
RTVSPost2010Prop28
280
     0
102
RTVSPost2010PropOp28
 70
     1
102
RTVSPost2010Prop29
280
     1
102
RTVSPost2010PropOp29
 70
     1
102
RTVSPost2010Prop30
280
     1
102
RTVSPost2010PropOp30
 70
     1
102
RTVSPost2010Prop31
280
     0
102
RTVSPost2010PropOp31
 70
     1
102
RTVSPost2010Prop32
280
     0
102
RTVSPost2010PropOp32
 70
     1
102
RTVSPost2010Prop33
280
     0
102
RTVSPost2010PropOp33
 70
     1
102
RTVSPost2010Prop34
280
     0
102
RTVSPost2010PropOp34
 70
     1
102
RTVSPost2010Prop35
280
     0
102
RTVSPost2010PropOp35
 70
     1
102
RTVSPost2010Prop36
280
     0
102
RTVSPost2010PropOp36
 70
     1
102
RTVSPost2010Prop37
 90
       50
102
RTVSPost2010PropOp37
 70
     1
102
RTVSPost2010Prop38
140
0.0
102
RTVSPost2010PropOp38
 70
     1
102
RTVSPost2010Prop39
140
1.0
102
RTVSPost2010PropOp39
 70
     1
102
RTVSPost2010Prop40
 90
        0
102
RTVSPost2010PropOp40
 70
     1
102
RTVSPost2010Prop41ColorIndex
 90
       18
102
RTVSPost2010Prop41ColorRGB
 90
        0
102
RTVSPost2010PropOp41
 70
     1
102
RTVSPost2010Prop42
 90
       50
102
RTVSPost2010PropOp42
 70
     1
102
RTVSPost2010Prop43
 90
        3
102
RTVSPost2010PropOp43
 70
     1
102
RTVSPost2010Prop44ColorIndex
 90
        5
102
RTVSPost2010Prop44ColorRGB
 90
      255
102
RTVSPost2010PropOp44
 70
     1
102
RTVSPost2010Prop45
280
     0
102
RTVSPost2010PropOp45
 70
     1
102
RTVSPost2010Prop46
 90
       50
102
RTVSPost2010PropOp46
 70
     1
102
RTVSPost2010Prop47
 90
       50
102
RTVSPost2010PropOp47
 70
     1
102
RTVSPost2010Prop48
 90
       50
102
RTVSPost2010PropOp48
 70
     1
102
RTVSPost2010Prop49
280
     0
102
RTVSPost2010PropOp49
 70
     1
102
RTVSPost2010Prop50
 90
       50
102
RTVSPost2010PropOp50
 70
     1
102
RTVSPost2010Prop51ColorIndex
 90
      256
102
RTVSPost2010Prop51ColorRGB
 90
-16777216
102
RTVSPost2010PropOp51
 70
     0
102
RTVSPost2010Prop52
140
1.0
102
RTVSPost2010PropOp52
 70
     0
102
RTVSPost2010Prop53
 90
        2
102
RTVSPost2010PropOp53
 70
     1
102
RTVSPost2010Prop54
  1
strokes_ogs.tif
102
RTVSPost2010PropOp54
 70
     1
102
RTVSPost2010Prop55
280
     0
102
RTVSPost2010PropOp55
 70
     1
102
RTVSPost2010Prop56
140
1.0
102
RTVSPost2010PropOp56
 70
     1
102
RTVSPost2010Prop57
140
1.0
102
RTVSPost2010PropOp57
 70
     1
  0
XRECORD
  5
93B
102
{ACAD_REACTORS
330
93A
102
}
330
93A
100
AcDbXrecord
280
     1
102
RTVSPost2010Prop28
280
     0
102
RTVSPost2010PropOp28
 70
     1
102
RTVSPost2010Prop29
280
     1
102
RTVSPost2010PropOp29
 70
     1
102
RTVSPost2010Prop30
280
     1
102
RTVSPost2010PropOp30
 70
     1
102
RTVSPost2010Prop31
280
     0
102
RTVSPost2010PropOp31
 70
     1
102
RTVSPost2010Prop32
280
     0
102
RTVSPost2010PropOp32
 70
     1
102
RTVSPost2010Prop33
280
     0
102
RTVSPost2010PropOp33
 70
     1
102
RTVSPost2010Prop34
280
     0
102
RTVSPost2010PropOp34
 70
     1
102
RTVSPost2010Prop35
280
     0
102
RTVSPost2010PropOp35
 70
     1
102
RTVSPost2010Prop36
280
     0
102
RTVSPost2010PropOp36
 70
     1
102
RTVSPost2010Prop37
 90
       50
102
RTVSPost2010PropOp37
 70
     1
102
RTVSPost2010Prop38
140
0.0
102
RTVSPost2010PropOp38
 70
     1
102
RTVSPost2010Prop39
140
1.0
102
RTVSPost2010PropOp39
 70
     1
102
RTVSPost2010Prop40
 90
        0
102
RTVSPost2010PropOp40
 70
     1
102
RTVSPost2010Prop41ColorIndex
 90
       18
102
RTVSPost2010Prop41ColorRGB
 90
        0
102
RTVSPost2010PropOp41
 70
     1
102
RTVSPost2010Prop42
 90
       50
102
RTVSPost2010PropOp42
 70
     1
102
RTVSPost2010Prop43
 90
        3
102
RTVSPost2010PropOp43
 70
     1
102
RTVSPost2010Prop44ColorIndex
 90
        5
102
RTVSPost2010Prop44ColorRGB
 90
      255
102
RTVSPost2010PropOp44
 70
     1
102
RTVSPost2010Prop45
280
     0
102
RTVSPost2010PropOp45
 70
     1
102
RTVSPost2010Prop46
 90
       50
102
RTVSPost2010PropOp46
 70
     1
102
RTVSPost2010Prop47
 90
       50
102
RTVSPost2010PropOp47
 70
     1
102
RTVSPost2010Prop48
 90
       50
102
RTVSPost2010PropOp48
 70
     1
102
RTVSPost2010Prop49
280
     0
102
RTVSPost2010PropOp49
 70
     1
102
RTVSPost2010Prop50
 90
       50
102
RTVSPost2010PropOp50
 70
     1
102
RTVSPost2010Prop51ColorIndex
 90
      256
102
RTVSPost2010Prop51ColorRGB
 90
-16777216
102
RTVSPost2010PropOp51
 70
     0
102
RTVSPost2010Prop52
140
1.0
102
RTVSPost2010PropOp52
 70
     0
102
RTVSPost2010Prop53
 90
        2
102
RTVSPost2010PropOp53
 70
     1
102
RTVSPost2010Prop54
  1
strokes_ogs.tif
102
RTVSPost2010PropOp54
 70
     1
102
RTVSPost2010Prop55
280
     0
102
RTVSPost2010PropOp55
 70
     1
102
RTVSPost2010Prop56
140
1.0
102
RTVSPost2010PropOp56
 70
     1
102
RTVSPost2010Prop57
140
1.0
102
RTVSPost2010PropOp57
 70
     1
  0
XRECORD
  5
943
102
{ACAD_REACTORS
330
942
102
}
330
942
100
AcDbXrecord
280
     1
102
RTVSPost2010Prop28
280
     0
102
RTVSPost2010PropOp28
 70
     1
102
RTVSPost2010Prop29
280
     1
102
RTVSPost2010PropOp29
 70
     1
102
RTVSPost2010Prop30
280
     1
102
RTVSPost2010PropOp30
 70
     1
102
RTVSPost2010Prop31
280
     0
102
RTVSPost2010PropOp31
 70
     1
102
RTVSPost2010Prop32
280
     0
102
RTVSPost2010PropOp32
 70
     1
102
RTVSPost2010Prop33
280
     0
102
RTVSPost2010PropOp33
 70
     1
102
RTVSPost2010Prop34
280
     0
102
RTVSPost2010PropOp34
 70
     1
102
RTVSPost2010Prop35
280
     0
102
RTVSPost2010PropOp35
 70
     1
102
RTVSPost2010Prop36
280
     0
102
RTVSPost2010PropOp36
 70
     1
102
RTVSPost2010Prop37
 90
       50
102
RTVSPost2010PropOp37
 70
     1
102
RTVSPost2010Prop38
140
0.0
102
RTVSPost2010PropOp38
 70
     1
102
RTVSPost2010Prop39
140
1.0
102
RTVSPost2010PropOp39
 70
     1
102
RTVSPost2010Prop40
 90
        0
102
RTVSPost2010PropOp40
 70
     1
102
RTVSPost2010Prop41ColorIndex
 90
       18
102
RTVSPost2010Prop41ColorRGB
 90
        0
102
RTVSPost2010PropOp41
 70
     1
102
RTVSPost2010Prop42
 90
       50
102
RTVSPost2010PropOp42
 70
     1
102
RTVSPost2010Prop43
 90
        3
102
RTVSPost2010PropOp43
 70
     1
102
RTVSPost2010Prop44ColorIndex
 90
        5
102
RTVSPost2010Prop44ColorRGB
 90
      255
102
RTVSPost2010PropOp44
 70
     1
102
RTVSPost2010Prop45
280
     0
102
RTVSPost2010PropOp45
 70
     1
102
RTVSPost2010Prop46
 90
       50
102
RTVSPost2010PropOp46
 70
     1
102
RTVSPost2010Prop47
 90
       50
102
RTVSPost2010PropOp47
 70
     1
102
RTVSPost2010Prop48
 90
       50
102
RTVSPost2010PropOp48
 70
     1
102
RTVSPost2010Prop49
280
     0
102
RTVSPost2010PropOp49
 70
     1
102
RTVSPost2010Prop50
 90
       50
102
RTVSPost2010PropOp50
 70
     1
102
RTVSPost2010Prop51ColorIndex
 90
      256
102
RTVSPost2010Prop51ColorRGB
 90
-16777216
102
RTVSPost2010PropOp51
 70
     0
102
RTVSPost2010Prop52
140
1.0
102
RTVSPost2010PropOp52
 70
     0
102
RTVSPost2010Prop53
 90
        2
102
RTVSPost2010PropOp53
 70
     1
102
RTVSPost2010Prop54
  1
strokes_ogs.tif
102
RTVSPost2010PropOp54
 70
     1
102
RTVSPost2010Prop55
280
     0
102
RTVSPost2010PropOp55
 70
     1
102
RTVSPost2010Prop56
140
1.0
102
RTVSPost2010PropOp56
 70
     1
102
RTVSPost2010Prop57
140
1.0
102
RTVSPost2010PropOp57
 70
     1
  0
XRECORD
  5
935
102
{ACAD_REACTORS
330
934
102
}
330
934
100
AcDbXrecord
280
     1
102
RTVSPost2010Prop28
280
     0
102
RTVSPost2010PropOp28
 70
     1
102
RTVSPost2010Prop29
280
     1
102
RTVSPost2010PropOp29
 70
     1
102
RTVSPost2010Prop30
280
     1
102
RTVSPost2010PropOp30
 70
     1
102
RTVSPost2010Prop31
280
     0
102
RTVSPost2010PropOp31
 70
     1
102
RTVSPost2010Prop32
280
     0
102
RTVSPost2010PropOp32
 70
     1
102
RTVSPost2010Prop33
280
     0
102
RTVSPost2010PropOp33
 70
     1
102
RTVSPost2010Prop34
280
     0
102
RTVSPost2010PropOp34
 70
     1
102
RTVSPost2010Prop35
280
     0
102
RTVSPost2010PropOp35
 70
     1
102
RTVSPost2010Prop36
280
     0
102
RTVSPost2010PropOp36
 70
     1
102
RTVSPost2010Prop37
 90
       50
102
RTVSPost2010PropOp37
 70
     1
102
RTVSPost2010Prop38
140
0.0
102
RTVSPost2010PropOp38
 70
     1
102
RTVSPost2010Prop39
140
1.0
102
RTVSPost2010PropOp39
 70
     1
102
RTVSPost2010Prop40
 90
        0
102
RTVSPost2010PropOp40
 70
     1
102
RTVSPost2010Prop41ColorIndex
 90
       18
102
RTVSPost2010Prop41ColorRGB
 90
        0
102
RTVSPost2010PropOp41
 70
     1
102
RTVSPost2010Prop42
 90
       50
102
RTVSPost2010PropOp42
 70
     1
102
RTVSPost2010Prop43
 90
        3
102
RTVSPost2010PropOp43
 70
     1
102
RTVSPost2010Prop44ColorIndex
 90
        5
102
RTVSPost2010Prop44ColorRGB
 90
      255
102
RTVSPost2010PropOp44
 70
     1
102
RTVSPost2010Prop45
280
     0
102
RTVSPost2010PropOp45
 70
     1
102
RTVSPost2010Prop46
 90
       50
102
RTVSPost2010PropOp46
 70
     1
102
RTVSPost2010Prop47
 90
       50
102
RTVSPost2010PropOp47
 70
     1
102
RTVSPost2010Prop48
 90
       50
102
RTVSPost2010PropOp48
 70
     1
102
RTVSPost2010Prop49
280
     0
102
RTVSPost2010PropOp49
 70
     1
102
RTVSPost2010Prop50
 90
       50
102
RTVSPost2010PropOp50
 70
     1
102
RTVSPost2010Prop51ColorIndex
 90
      256
102
RTVSPost2010Prop51ColorRGB
 90
-16777216
102
RTVSPost2010PropOp51
 70
     0
102
RTVSPost2010Prop52
140
1.0
102
RTVSPost2010PropOp52
 70
     0
102
RTVSPost2010Prop53
 90
        2
102
RTVSPost2010PropOp53
 70
     1
102
RTVSPost2010Prop54
  1
strokes_ogs.tif
102
RTVSPost2010PropOp54
 70
     1
102
RTVSPost2010Prop55
280
     0
102
RTVSPost2010PropOp55
 70
     1
102
RTVSPost2010Prop56
140
1.0
102
RTVSPost2010PropOp56
 70
     1
102
RTVSPost2010Prop57
140
1.0
102
RTVSPost2010PropOp57
 70
     1
  0
XRECORD
  5
939
102
{ACAD_REACTORS
330
938
102
}
330
938
100
AcDbXrecord
280
     1
102
RTVSPost2010Prop28
280
     0
102
RTVSPost2010PropOp28
 70
     1
102
RTVSPost2010Prop29
280
     1
102
RTVSPost2010PropOp29
 70
     1
102
RTVSPost2010Prop30
280
     1
102
RTVSPost2010PropOp30
 70
     1
102
RTVSPost2010Prop31
280
     0
102
RTVSPost2010PropOp31
 70
     1
102
RTVSPost2010Prop32
280
     0
102
RTVSPost2010PropOp32
 70
     1
102
RTVSPost2010Prop33
280
     0
102
RTVSPost2010PropOp33
 70
     1
102
RTVSPost2010Prop34
280
     0
102
RTVSPost2010PropOp34
 70
     1
102
RTVSPost2010Prop35
280
     0
102
RTVSPost2010PropOp35
 70
     1
102
RTVSPost2010Prop36
280
     0
102
RTVSPost2010PropOp36
 70
     1
102
RTVSPost2010Prop37
 90
       50
102
RTVSPost2010PropOp37
 70
     1
102
RTVSPost2010Prop38
140
0.0
102
RTVSPost2010PropOp38
 70
     1
102
RTVSPost2010Prop39
140
1.0
102
RTVSPost2010PropOp39
 70
     1
102
RTVSPost2010Prop40
 90
        0
102
RTVSPost2010PropOp40
 70
     1
102
RTVSPost2010Prop41ColorIndex
 90
       18
102
RTVSPost2010Prop41ColorRGB
 90
        0
102
RTVSPost2010PropOp41
 70
     1
102
RTVSPost2010Prop42
 90
       50
102
RTVSPost2010PropOp42
 70
     1
102
RTVSPost2010Prop43
 90
        3
102
RTVSPost2010PropOp43
 70
     1
102
RTVSPost2010Prop44ColorIndex
 90
        5
102
RTVSPost2010Prop44ColorRGB
 90
      255
102
RTVSPost2010PropOp44
 70
     1
102
RTVSPost2010Prop45
280
     0
102
RTVSPost2010PropOp45
 70
     1
102
RTVSPost2010Prop46
 90
       50
102
RTVSPost2010PropOp46
 70
     1
102
RTVSPost2010Prop47
 90
       50
102
RTVSPost2010PropOp47
 70
     1
102
RTVSPost2010Prop48
 90
       50
102
RTVSPost2010PropOp48
 70
     1
102
RTVSPost2010Prop49
280
     0
102
RTVSPost2010PropOp49
 70
     1
102
RTVSPost2010Prop50
 90
       50
102
RTVSPost2010PropOp50
 70
     1
102
RTVSPost2010Prop51ColorIndex
 90
      256
102
RTVSPost2010Prop51ColorRGB
 90
-16777216
102
RTVSPost2010PropOp51
 70
     0
102
RTVSPost2010Prop52
140
1.0
102
RTVSPost2010PropOp52
 70
     0
102
RTVSPost2010Prop53
 90
        2
102
RTVSPost2010PropOp53
 70
     1
102
RTVSPost2010Prop54
  1
strokes_ogs.tif
102
RTVSPost2010PropOp54
 70
     1
102
RTVSPost2010Prop55
280
     0
102
RTVSPost2010PropOp55
 70
     1
102
RTVSPost2010Prop56
140
1.0
102
RTVSPost2010PropOp56
 70
     1
102
RTVSPost2010Prop57
140
1.0
102
RTVSPost2010PropOp57
 70
     1
  0
XRECORD
  5
953
102
{ACAD_REACTORS
330
952
102
}
330
952
100
AcDbXrecord
280
     1
102
RTVSPost2010Prop28
280
     0
102
RTVSPost2010PropOp28
 70
     0
102
RTVSPost2010Prop29
280
     1
102
RTVSPost2010PropOp29
 70
     0
102
RTVSPost2010Prop30
280
     1
102
RTVSPost2010PropOp30
 70
     0
102
RTVSPost2010Prop31
280
     0
102
RTVSPost2010PropOp31
 70
     0
102
RTVSPost2010Prop32
280
     0
102
RTVSPost2010PropOp32
 70
     0
102
RTVSPost2010Prop33
280
     0
102
RTVSPost2010PropOp33
 70
     0
102
RTVSPost2010Prop34
280
     0
102
RTVSPost2010PropOp34
 70
     0
102
RTVSPost2010Prop35
280
     0
102
RTVSPost2010PropOp35
 70
     0
102
RTVSPost2010Prop36
280
     0
102
RTVSPost2010PropOp36
 70
     0
102
RTVSPost2010Prop37
 90
       50
102
RTVSPost2010PropOp37
 70
     0
102
RTVSPost2010Prop38
140
0.0
102
RTVSPost2010PropOp38
 70
     0
102
RTVSPost2010Prop39
140
1.0
102
RTVSPost2010PropOp39
 70
     0
102
RTVSPost2010Prop40
 90
        0
102
RTVSPost2010PropOp40
 70
     0
102
RTVSPost2010Prop41ColorIndex
 90
       18
102
RTVSPost2010Prop41ColorRGB
 90
        0
102
RTVSPost2010PropOp41
 70
     0
102
RTVSPost2010Prop42
 90
       50
102
RTVSPost2010PropOp42
 70
     0
102
RTVSPost2010Prop43
 90
        3
102
RTVSPost2010PropOp43
 70
     0
102
RTVSPost2010Prop44ColorIndex
 90
        5
102
RTVSPost2010Prop44ColorRGB
 90
      255
102
RTVSPost2010PropOp44
 70
     0
102
RTVSPost2010Prop45
280
     0
102
RTVSPost2010PropOp45
 70
     0
102
RTVSPost2010Prop46
 90
       50
102
RTVSPost2010PropOp46
 70
     0
102
RTVSPost2010Prop47
 90
       50
102
RTVSPost2010PropOp47
 70
     0
102
RTVSPost2010Prop48
 90
       50
102
RTVSPost2010PropOp48
 70
     0
102
RTVSPost2010Prop49
280
     0
102
RTVSPost2010PropOp49
 70
     0
102
RTVSPost2010Prop50
 90
       50
102
RTVSPost2010PropOp50
 70
     0
102
RTVSPost2010Prop51ColorIndex
 90
      256
102
RTVSPost2010Prop51ColorRGB
 90
-16777216
102
RTVSPost2010PropOp51
 70
     0
102
RTVSPost2010Prop52
140
1.0
102
RTVSPost2010PropOp52
 70
     0
102
RTVSPost2010Prop53
 90
        2
102
RTVSPost2010PropOp53
 70
     0
102
RTVSPost2010Prop54
  1
strokes_ogs.tif
102
RTVSPost2010PropOp54
 70
     0
102
RTVSPost2010Prop55
280
     0
102
RTVSPost2010PropOp55
 70
     0
102
RTVSPost2010Prop56
140
1.0
102
RTVSPost2010PropOp56
 70
     0
102
RTVSPost2010Prop57
140
1.0
102
RTVSPost2010PropOp57
 70
     0
  0
XRECORD
  5
941
102
{ACAD_REACTORS
330
940
102
}
330
940
100
AcDbXrecord
280
     1
102
RTVSPost2010Prop28
280
     0
102
RTVSPost2010PropOp28
 70
     1
102
RTVSPost2010Prop29
280
     1
102
RTVSPost2010PropOp29
 70
     1
102
RTVSPost2010Prop30
280
     1
102
RTVSPost2010PropOp30
 70
     1
102
RTVSPost2010Prop31
280
     0
102
RTVSPost2010PropOp31
 70
     1
102
RTVSPost2010Prop32
280
     0
102
RTVSPost2010PropOp32
 70
     1
102
RTVSPost2010Prop33
280
     0
102
RTVSPost2010PropOp33
 70
     1
102
RTVSPost2010Prop34
280
     0
102
RTVSPost2010PropOp34
 70
     1
102
RTVSPost2010Prop35
280
     0
102
RTVSPost2010PropOp35
 70
     1
102
RTVSPost2010Prop36
280
     0
102
RTVSPost2010PropOp36
 70
     1
102
RTVSPost2010Prop37
 90
       50
102
RTVSPost2010PropOp37
 70
     1
102
RTVSPost2010Prop38
140
0.0
102
RTVSPost2010PropOp38
 70
     1
102
RTVSPost2010Prop39
140
1.0
102
RTVSPost2010PropOp39
 70
     1
102
RTVSPost2010Prop40
 90
        0
102
RTVSPost2010PropOp40
 70
     1
102
RTVSPost2010Prop41ColorIndex
 90
       18
102
RTVSPost2010Prop41ColorRGB
 90
        0
102
RTVSPost2010PropOp41
 70
     1
102
RTVSPost2010Prop42
 90
       50
102
RTVSPost2010PropOp42
 70
     1
102
RTVSPost2010Prop43
 90
        3
102
RTVSPost2010PropOp43
 70
     1
102
RTVSPost2010Prop44ColorIndex
 90
        5
102
RTVSPost2010Prop44ColorRGB
 90
      255
102
RTVSPost2010PropOp44
 70
     1
102
RTVSPost2010Prop45
280
     0
102
RTVSPost2010PropOp45
 70
     1
102
RTVSPost2010Prop46
 90
       50
102
RTVSPost2010PropOp46
 70
     1
102
RTVSPost2010Prop47
 90
       50
102
RTVSPost2010PropOp47
 70
     1
102
RTVSPost2010Prop48
 90
       50
102
RTVSPost2010PropOp48
 70
     1
102
RTVSPost2010Prop49
280
     0
102
RTVSPost2010PropOp49
 70
     1
102
RTVSPost2010Prop50
 90
       50
102
RTVSPost2010PropOp50
 70
     1
102
RTVSPost2010Prop51ColorIndex
 90
      256
102
RTVSPost2010Prop51ColorRGB
 90
-16777216
102
RTVSPost2010PropOp51
 70
     0
102
RTVSPost2010Prop52
140
1.0
102
RTVSPost2010PropOp52
 70
     0
102
RTVSPost2010Prop53
 90
        2
102
RTVSPost2010PropOp53
 70
     1
102
RTVSPost2010Prop54
  1
strokes_ogs.tif
102
RTVSPost2010PropOp54
 70
     1
102
RTVSPost2010Prop55
280
     0
102
RTVSPost2010PropOp55
 70
     1
102
RTVSPost2010Prop56
140
1.0
102
RTVSPost2010PropOp56
 70
     1
102
RTVSPost2010Prop57
140
1.0
102
RTVSPost2010PropOp57
 70
     1
  0
XRECORD
  5
925
102
{ACAD_REACTORS
330
924
102
}
330
924
100
AcDbXrecord
280
     1
102
RTVSPost2010Prop28
280
     0
102
RTVSPost2010PropOp28
 70
     1
102
RTVSPost2010Prop29
280
     1
102
RTVSPost2010PropOp29
 70
     1
102
RTVSPost2010Prop30
280
     1
102
RTVSPost2010PropOp30
 70
     1
102
RTVSPost2010Prop31
280
     0
102
RTVSPost2010PropOp31
 70
     1
102
RTVSPost2010Prop32
280
     0
102
RTVSPost2010PropOp32
 70
     1
102
RTVSPost2010Prop33
280
     0
102
RTVSPost2010PropOp33
 70
     1
102
RTVSPost2010Prop34
280
     0
102
RTVSPost2010PropOp34
 70
     1
102
RTVSPost2010Prop35
280
     0
102
RTVSPost2010PropOp35
 70
     1
102
RTVSPost2010Prop36
280
     0
102
RTVSPost2010PropOp36
 70
     1
102
RTVSPost2010Prop37
 90
       50
102
RTVSPost2010PropOp37
 70
     1
102
RTVSPost2010Prop38
140
0.0
102
RTVSPost2010PropOp38
 70
     1
102
RTVSPost2010Prop39
140
1.0
102
RTVSPost2010PropOp39
 70
     1
102
RTVSPost2010Prop40
 90
        0
102
RTVSPost2010PropOp40
 70
     1
102
RTVSPost2010Prop41ColorIndex
 90
       18
102
RTVSPost2010Prop41ColorRGB
 90
        0
102
RTVSPost2010PropOp41
 70
     1
102
RTVSPost2010Prop42
 90
       50
102
RTVSPost2010PropOp42
 70
     1
102
RTVSPost2010Prop43
 90
        3
102
RTVSPost2010PropOp43
 70
     1
102
RTVSPost2010Prop44ColorIndex
 90
        5
102
RTVSPost2010Prop44ColorRGB
 90
      255
102
RTVSPost2010PropOp44
 70
     1
102
RTVSPost2010Prop45
280
     0
102
RTVSPost2010PropOp45
 70
     1
102
RTVSPost2010Prop46
 90
       50
102
RTVSPost2010PropOp46
 70
     1
102
RTVSPost2010Prop47
 90
       50
102
RTVSPost2010PropOp47
 70
     1
102
RTVSPost2010Prop48
 90
       50
102
RTVSPost2010PropOp48
 70
     1
102
RTVSPost2010Prop49
280
     0
102
RTVSPost2010PropOp49
 70
     1
102
RTVSPost2010Prop50
 90
       50
102
RTVSPost2010PropOp50
 70
     1
102
RTVSPost2010Prop51ColorIndex
 90
      256
102
RTVSPost2010Prop51ColorRGB
 90
-16777216
102
RTVSPost2010PropOp51
 70
     0
102
RTVSPost2010Prop52
140
1.0
102
RTVSPost2010PropOp52
 70
     0
102
RTVSPost2010Prop53
 90
        2
102
RTVSPost2010PropOp53
 70
     1
102
RTVSPost2010Prop54
  1
strokes_ogs.tif
102
RTVSPost2010PropOp54
 70
     1
102
RTVSPost2010Prop55
280
     0
102
RTVSPost2010PropOp55
 70
     1
102
RTVSPost2010Prop56
140
1.0
102
RTVSPost2010PropOp56
 70
     1
102
RTVSPost2010Prop57
140
1.0
102
RTVSPost2010PropOp57
 70
     1
  0
XRECORD
  5
927
102
{ACAD_REACTORS
330
926
102
}
330
926
100
AcDbXrecord
280
     1
102
RTVSPost2010Prop28
280
     0
102
RTVSPost2010PropOp28
 70
     1
102
RTVSPost2010Prop29
280
     1
102
RTVSPost2010PropOp29
 70
     1
102
RTVSPost2010Prop30
280
     1
102
RTVSPost2010PropOp30
 70
     1
102
RTVSPost2010Prop31
280
     0
102
RTVSPost2010PropOp31
 70
     1
102
RTVSPost2010Prop32
280
     0
102
RTVSPost2010PropOp32
 70
     1
102
RTVSPost2010Prop33
280
     0
102
RTVSPost2010PropOp33
 70
     1
102
RTVSPost2010Prop34
280
     0
102
RTVSPost2010PropOp34
 70
     1
102
RTVSPost2010Prop35
280
     0
102
RTVSPost2010PropOp35
 70
     1
102
RTVSPost2010Prop36
280
     0
102
RTVSPost2010PropOp36
 70
     1
102
RTVSPost2010Prop37
 90
       50
102
RTVSPost2010PropOp37
 70
     1
102
RTVSPost2010Prop38
140
0.0
102
RTVSPost2010PropOp38
 70
     1
102
RTVSPost2010Prop39
140
1.0
102
RTVSPost2010PropOp39
 70
     1
102
RTVSPost2010Prop40
 90
        0
102
RTVSPost2010PropOp40
 70
     1
102
RTVSPost2010Prop41ColorIndex
 90
       18
102
RTVSPost2010Prop41ColorRGB
 90
        0
102
RTVSPost2010PropOp41
 70
     1
102
RTVSPost2010Prop42
 90
       50
102
RTVSPost2010PropOp42
 70
     1
102
RTVSPost2010Prop43
 90
        3
102
RTVSPost2010PropOp43
 70
     1
102
RTVSPost2010Prop44ColorIndex
 90
        5
102
RTVSPost2010Prop44ColorRGB
 90
      255
102
RTVSPost2010PropOp44
 70
     1
102
RTVSPost2010Prop45
280
     0
102
RTVSPost2010PropOp45
 70
     1
102
RTVSPost2010Prop46
 90
       50
102
RTVSPost2010PropOp46
 70
     1
102
RTVSPost2010Prop47
 90
       50
102
RTVSPost2010PropOp47
 70
     1
102
RTVSPost2010Prop48
 90
       50
102
RTVSPost2010PropOp48
 70
     1
102
RTVSPost2010Prop49
280
     0
102
RTVSPost2010PropOp49
 70
     1
102
RTVSPost2010Prop50
 90
       50
102
RTVSPost2010PropOp50
 70
     1
102
RTVSPost2010Prop51ColorIndex
 90
      256
102
RTVSPost2010Prop51ColorRGB
 90
-16777216
102
RTVSPost2010PropOp51
 70
     0
102
RTVSPost2010Prop52
140
1.0
102
RTVSPost2010PropOp52
 70
     0
102
RTVSPost2010Prop53
 90
        2
102
RTVSPost2010PropOp53
 70
     1
102
RTVSPost2010Prop54
  1
strokes_ogs.tif
102
RTVSPost2010PropOp54
 70
     1
102
RTVSPost2010Prop55
280
     0
102
RTVSPost2010PropOp55
 70
     1
102
RTVSPost2010Prop56
140
1.0
102
RTVSPost2010PropOp56
 70
     1
102
RTVSPost2010Prop57
140
1.0
102
RTVSPost2010PropOp57
 70
     1
  0
XRECORD
  5
929
102
{ACAD_REACTORS
330
928
102
}
330
928
100
AcDbXrecord
280
     1
102
RTVSPost2010Prop28
280
     0
102
RTVSPost2010PropOp28
 70
     1
102
RTVSPost2010Prop29
280
     1
102
RTVSPost2010PropOp29
 70
     1
102
RTVSPost2010Prop30
280
     1
102
RTVSPost2010PropOp30
 70
     1
102
RTVSPost2010Prop31
280
     0
102
RTVSPost2010PropOp31
 70
     1
102
RTVSPost2010Prop32
280
     0
102
RTVSPost2010PropOp32
 70
     1
102
RTVSPost2010Prop33
280
     0
102
RTVSPost2010PropOp33
 70
     1
102
RTVSPost2010Prop34
280
     0
102
RTVSPost2010PropOp34
 70
     1
102
RTVSPost2010Prop35
280
     0
102
RTVSPost2010PropOp35
 70
     1
102
RTVSPost2010Prop36
280
     0
102
RTVSPost2010PropOp36
 70
     1
102
RTVSPost2010Prop37
 90
       50
102
RTVSPost2010PropOp37
 70
     1
102
RTVSPost2010Prop38
140
0.0
102
RTVSPost2010PropOp38
 70
     1
102
RTVSPost2010Prop39
140
1.0
102
RTVSPost2010PropOp39
 70
     1
102
RTVSPost2010Prop40
 90
        0
102
RTVSPost2010PropOp40
 70
     1
102
RTVSPost2010Prop41ColorIndex
 90
       18
102
RTVSPost2010Prop41ColorRGB
 90
        0
102
RTVSPost2010PropOp41
 70
     1
102
RTVSPost2010Prop42
 90
       50
102
RTVSPost2010PropOp42
 70
     1
102
RTVSPost2010Prop43
 90
        3
102
RTVSPost2010PropOp43
 70
     1
102
RTVSPost2010Prop44ColorIndex
 90
        5
102
RTVSPost2010Prop44ColorRGB
 90
      255
102
RTVSPost2010PropOp44
 70
     1
102
RTVSPost2010Prop45
280
     0
102
RTVSPost2010PropOp45
 70
     1
102
RTVSPost2010Prop46
 90
       50
102
RTVSPost2010PropOp46
 70
     1
102
RTVSPost2010Prop47
 90
       50
102
RTVSPost2010PropOp47
 70
     1
102
RTVSPost2010Prop48
 90
       50
102
RTVSPost2010PropOp48
 70
     1
102
RTVSPost2010Prop49
280
     0
102
RTVSPost2010PropOp49
 70
     1
102
RTVSPost2010Prop50
 90
       50
102
RTVSPost2010PropOp50
 70
     1
102
RTVSPost2010Prop51ColorIndex
 90
      256
102
RTVSPost2010Prop51ColorRGB
 90
-16777216
102
RTVSPost2010PropOp51
 70
     0
102
RTVSPost2010Prop52
140
1.0
102
RTVSPost2010PropOp52
 70
     0
102
RTVSPost2010Prop53
 90
        2
102
RTVSPost2010PropOp53
 70
     1
102
RTVSPost2010Prop54
  1
strokes_ogs.tif
102
RTVSPost2010PropOp54
 70
     1
102
RTVSPost2010Prop55
280
     0
102
RTVSPost2010PropOp55
 70
     1
102
RTVSPost2010Prop56
140
1.0
102
RTVSPost2010PropOp56
 70
     1
102
RTVSPost2010Prop57
140
1.0
102
RTVSPost2010PropOp57
 70
     1
  0
XRECORD
  5
92B
102
{ACAD_REACTORS
330
92A
102
}
330
92A
100
AcDbXrecord
280
     1
102
RTVSPost2010Prop28
280
     0
102
RTVSPost2010PropOp28
 70
     1
102
RTVSPost2010Prop29
280
     1
102
RTVSPost2010PropOp29
 70
     1
102
RTVSPost2010Prop30
280
     1
102
RTVSPost2010PropOp30
 70
     1
102
RTVSPost2010Prop31
280
     0
102
RTVSPost2010PropOp31
 70
     1
102
RTVSPost2010Prop32
280
     0
102
RTVSPost2010PropOp32
 70
     1
102
RTVSPost2010Prop33
280
     0
102
RTVSPost2010PropOp33
 70
     1
102
RTVSPost2010Prop34
280
     0
102
RTVSPost2010PropOp34
 70
     1
102
RTVSPost2010Prop35
280
     0
102
RTVSPost2010PropOp35
 70
     1
102
RTVSPost2010Prop36
280
     0
102
RTVSPost2010PropOp36
 70
     1
102
RTVSPost2010Prop37
 90
       50
102
RTVSPost2010PropOp37
 70
     1
102
RTVSPost2010Prop38
140
0.0
102
RTVSPost2010PropOp38
 70
     1
102
RTVSPost2010Prop39
140
1.0
102
RTVSPost2010PropOp39
 70
     1
102
RTVSPost2010Prop40
 90
        0
102
RTVSPost2010PropOp40
 70
     1
102
RTVSPost2010Prop41ColorIndex
 90
       18
102
RTVSPost2010Prop41ColorRGB
 90
        0
102
RTVSPost2010PropOp41
 70
     1
102
RTVSPost2010Prop42
 90
       50
102
RTVSPost2010PropOp42
 70
     1
102
RTVSPost2010Prop43
 90
        3
102
RTVSPost2010PropOp43
 70
     1
102
RTVSPost2010Prop44ColorIndex
 90
        5
102
RTVSPost2010Prop44ColorRGB
 90
      255
102
RTVSPost2010PropOp44
 70
     1
102
RTVSPost2010Prop45
280
     0
102
RTVSPost2010PropOp45
 70
     1
102
RTVSPost2010Prop46
 90
       50
102
RTVSPost2010PropOp46
 70
     1
102
RTVSPost2010Prop47
 90
       50
102
RTVSPost2010PropOp47
 70
     1
102
RTVSPost2010Prop48
 90
       50
102
RTVSPost2010PropOp48
 70
     1
102
RTVSPost2010Prop49
280
     0
102
RTVSPost2010PropOp49
 70
     1
102
RTVSPost2010Prop50
 90
       50
102
RTVSPost2010PropOp50
 70
     1
102
RTVSPost2010Prop51ColorIndex
 90
      256
102
RTVSPost2010Prop51ColorRGB
 90
-16777216
102
RTVSPost2010PropOp51
 70
     0
102
RTVSPost2010Prop52
140
1.0
102
RTVSPost2010PropOp52
 70
     0
102
RTVSPost2010Prop53
 90
        2
102
RTVSPost2010PropOp53
 70
     1
102
RTVSPost2010Prop54
  1
strokes_ogs.tif
102
RTVSPost2010PropOp54
 70
     1
102
RTVSPost2010Prop55
280
     0
102
RTVSPost2010PropOp55
 70
     1
102
RTVSPost2010Prop56
140
1.0
102
RTVSPost2010PropOp56
 70
     1
102
RTVSPost2010Prop57
140
1.0
102
RTVSPost2010PropOp57
 70
     1
  0
XRECORD
  5
933
102
{ACAD_REACTORS
330
932
102
}
330
932
100
AcDbXrecord
280
     1
102
RTVSPost2010Prop28
280
     0
102
RTVSPost2010PropOp28
 70
     1
102
RTVSPost2010Prop29
280
     1
102
RTVSPost2010PropOp29
 70
     1
102
RTVSPost2010Prop30
280
     1
102
RTVSPost2010PropOp30
 70
     1
102
RTVSPost2010Prop31
280
     0
102
RTVSPost2010PropOp31
 70
     1
102
RTVSPost2010Prop32
280
     0
102
RTVSPost2010PropOp32
 70
     1
102
RTVSPost2010Prop33
280
     0
102
RTVSPost2010PropOp33
 70
     1
102
RTVSPost2010Prop34
280
     0
102
RTVSPost2010PropOp34
 70
     1
102
RTVSPost2010Prop35
280
     0
102
RTVSPost2010PropOp35
 70
     1
102
RTVSPost2010Prop36
280
     0
102
RTVSPost2010PropOp36
 70
     1
102
RTVSPost2010Prop37
 90
       50
102
RTVSPost2010PropOp37
 70
     1
102
RTVSPost2010Prop38
140
0.0
102
RTVSPost2010PropOp38
 70
     1
102
RTVSPost2010Prop39
140
1.0
102
RTVSPost2010PropOp39
 70
     1
102
RTVSPost2010Prop40
 90
        0
102
RTVSPost2010PropOp40
 70
     1
102
RTVSPost2010Prop41ColorIndex
 90
       18
102
RTVSPost2010Prop41ColorRGB
 90
        0
102
RTVSPost2010PropOp41
 70
     1
102
RTVSPost2010Prop42
 90
       50
102
RTVSPost2010PropOp42
 70
     1
102
RTVSPost2010Prop43
 90
        3
102
RTVSPost2010PropOp43
 70
     1
102
RTVSPost2010Prop44ColorIndex
 90
        5
102
RTVSPost2010Prop44ColorRGB
 90
      255
102
RTVSPost2010PropOp44
 70
     1
102
RTVSPost2010Prop45
280
     0
102
RTVSPost2010PropOp45
 70
     1
102
RTVSPost2010Prop46
 90
       50
102
RTVSPost2010PropOp46
 70
     1
102
RTVSPost2010Prop47
 90
       50
102
RTVSPost2010PropOp47
 70
     1
102
RTVSPost2010Prop48
 90
       50
102
RTVSPost2010PropOp48
 70
     1
102
RTVSPost2010Prop49
280
     0
102
RTVSPost2010PropOp49
 70
     1
102
RTVSPost2010Prop50
 90
       50
102
RTVSPost2010PropOp50
 70
     1
102
RTVSPost2010Prop51ColorIndex
 90
      256
102
RTVSPost2010Prop51ColorRGB
 90
-16777216
102
RTVSPost2010PropOp51
 70
     0
102
RTVSPost2010Prop52
140
1.0
102
RTVSPost2010PropOp52
 70
     0
102
RTVSPost2010Prop53
 90
        2
102
RTVSPost2010PropOp53
 70
     1
102
RTVSPost2010Prop54
  1
strokes_ogs.tif
102
RTVSPost2010PropOp54
 70
     1
102
RTVSPost2010Prop55
280
     0
102
RTVSPost2010PropOp55
 70
     1
102
RTVSPost2010Prop56
140
1.0
102
RTVSPost2010PropOp56
 70
     1
102
RTVSPost2010Prop57
140
1.0
102
RTVSPost2010PropOp57
 70
     1
  0
XRECORD
  5
94F
102
{ACAD_REACTORS
330
94E
102
}
330
94E
100
AcDbXrecord
280
     1
102
RTVSPost2010Prop28
280
     0
102
RTVSPost2010PropOp28
 70
     0
102
RTVSPost2010Prop29
280
     1
102
RTVSPost2010PropOp29
 70
     0
102
RTVSPost2010Prop30
280
     1
102
RTVSPost2010PropOp30
 70
     0
102
RTVSPost2010Prop31
280
     0
102
RTVSPost2010PropOp31
 70
     0
102
RTVSPost2010Prop32
280
     0
102
RTVSPost2010PropOp32
 70
     0
102
RTVSPost2010Prop33
280
     0
102
RTVSPost2010PropOp33
 70
     0
102
RTVSPost2010Prop34
280
     0
102
RTVSPost2010PropOp34
 70
     0
102
RTVSPost2010Prop35
280
     0
102
RTVSPost2010PropOp35
 70
     0
102
RTVSPost2010Prop36
280
     0
102
RTVSPost2010PropOp36
 70
     0
102
RTVSPost2010Prop37
 90
       50
102
RTVSPost2010PropOp37
 70
     0
102
RTVSPost2010Prop38
140
0.0
102
RTVSPost2010PropOp38
 70
     0
102
RTVSPost2010Prop39
140
1.0
102
RTVSPost2010PropOp39
 70
     0
102
RTVSPost2010Prop40
 90
        0
102
RTVSPost2010PropOp40
 70
     0
102
RTVSPost2010Prop41ColorIndex
 90
       18
102
RTVSPost2010Prop41ColorRGB
 90
        0
102
RTVSPost2010PropOp41
 70
     0
102
RTVSPost2010Prop42
 90
       50
102
RTVSPost2010PropOp42
 70
     0
102
RTVSPost2010Prop43
 90
        3
102
RTVSPost2010PropOp43
 70
     0
102
RTVSPost2010Prop44ColorIndex
 90
        5
102
RTVSPost2010Prop44ColorRGB
 90
      255
102
RTVSPost2010PropOp44
 70
     0
102
RTVSPost2010Prop45
280
     0
102
RTVSPost2010PropOp45
 70
     0
102
RTVSPost2010Prop46
 90
       50
102
RTVSPost2010PropOp46
 70
     0
102
RTVSPost2010Prop47
 90
       50
102
RTVSPost2010PropOp47
 70
     0
102
RTVSPost2010Prop48
 90
       50
102
RTVSPost2010PropOp48
 70
     0
102
RTVSPost2010Prop49
280
     0
102
RTVSPost2010PropOp49
 70
     0
102
RTVSPost2010Prop50
 90
       50
102
RTVSPost2010PropOp50
 70
     0
102
RTVSPost2010Prop51ColorIndex
 90
      256
102
RTVSPost2010Prop51ColorRGB
 90
-16777216
102
RTVSPost2010PropOp51
 70
     0
102
RTVSPost2010Prop52
140
1.0
102
RTVSPost2010PropOp52
 70
     0
102
RTVSPost2010Prop53
 90
        2
102
RTVSPost2010PropOp53
 70
     0
102
RTVSPost2010Prop54
  1
strokes_ogs.tif
102
RTVSPost2010PropOp54
 70
     0
102
RTVSPost2010Prop55
280
     0
102
RTVSPost2010PropOp55
 70
     0
102
RTVSPost2010Prop56
140
1.0
102
RTVSPost2010PropOp56
 70
     0
102
RTVSPost2010Prop57
140
1.0
102
RTVSPost2010PropOp57
 70
     0
  0
XRECORD
  5
93F
102
{ACAD_REACTORS
330
93E
102
}
330
93E
100
AcDbXrecord
280
     1
102
RTVSPost2010Prop28
280
     0
102
RTVSPost2010PropOp28
 70
     1
102
RTVSPost2010Prop29
280
     1
102
RTVSPost2010PropOp29
 70
     1
102
RTVSPost2010Prop30
280
     1
102
RTVSPost2010PropOp30
 70
     1
102
RTVSPost2010Prop31
280
     0
102
RTVSPost2010PropOp31
 70
     1
102
RTVSPost2010Prop32
280
     0
102
RTVSPost2010PropOp32
 70
     1
102
RTVSPost2010Prop33
280
     0
102
RTVSPost2010PropOp33
 70
     1
102
RTVSPost2010Prop34
280
     0
102
RTVSPost2010PropOp34
 70
     1
102
RTVSPost2010Prop35
280
     0
102
RTVSPost2010PropOp35
 70
     1
102
RTVSPost2010Prop36
280
     0
102
RTVSPost2010PropOp36
 70
     1
102
RTVSPost2010Prop37
 90
       50
102
RTVSPost2010PropOp37
 70
     1
102
RTVSPost2010Prop38
140
0.0
102
RTVSPost2010PropOp38
 70
     1
102
RTVSPost2010Prop39
140
1.0
102
RTVSPost2010PropOp39
 70
     1
102
RTVSPost2010Prop40
 90
        0
102
RTVSPost2010PropOp40
 70
     1
102
RTVSPost2010Prop41ColorIndex
 90
       18
102
RTVSPost2010Prop41ColorRGB
 90
        0
102
RTVSPost2010PropOp41
 70
     1
102
RTVSPost2010Prop42
 90
       50
102
RTVSPost2010PropOp42
 70
     1
102
RTVSPost2010Prop43
 90
        3
102
RTVSPost2010PropOp43
 70
     1
102
RTVSPost2010Prop44ColorIndex
 90
        5
102
RTVSPost2010Prop44ColorRGB
 90
      255
102
RTVSPost2010PropOp44
 70
     1
102
RTVSPost2010Prop45
280
     0
102
RTVSPost2010PropOp45
 70
     1
102
RTVSPost2010Prop46
 90
       50
102
RTVSPost2010PropOp46
 70
     1
102
RTVSPost2010Prop47
 90
       50
102
RTVSPost2010PropOp47
 70
     1
102
RTVSPost2010Prop48
 90
       50
102
RTVSPost2010PropOp48
 70
     1
102
RTVSPost2010Prop49
280
     0
102
RTVSPost2010PropOp49
 70
     1
102
RTVSPost2010Prop50
 90
       50
102
RTVSPost2010PropOp50
 70
     1
102
RTVSPost2010Prop51ColorIndex
 90
      256
102
RTVSPost2010Prop51ColorRGB
 90
-16777216
102
RTVSPost2010PropOp51
 70
     0
102
RTVSPost2010Prop52
140
1.0
102
RTVSPost2010PropOp52
 70
     0
102
RTVSPost2010Prop53
 90
        2
102
RTVSPost2010PropOp53
 70
     1
102
RTVSPost2010Prop54
  1
strokes_ogs.tif
102
RTVSPost2010PropOp54
 70
     1
102
RTVSPost2010Prop55
280
     0
102
RTVSPost2010PropOp55
 70
     1
102
RTVSPost2010Prop56
140
1.0
102
RTVSPost2010PropOp56
 70
     1
102
RTVSPost2010Prop57
140
1.0
102
RTVSPost2010PropOp57
 70
     1
  0
XRECORD
  5
951
102
{ACAD_REACTORS
330
950
102
}
330
950
100
AcDbXrecord
280
     1
102
RTVSPost2010Prop28
280
     0
102
RTVSPost2010PropOp28
 70
     0
102
RTVSPost2010Prop29
280
     1
102
RTVSPost2010PropOp29
 70
     0
102
RTVSPost2010Prop30
280
     1
102
RTVSPost2010PropOp30
 70
     0
102
RTVSPost2010Prop31
280
     0
102
RTVSPost2010PropOp31
 70
     0
102
RTVSPost2010Prop32
280
     0
102
RTVSPost2010PropOp32
 70
     0
102
RTVSPost2010Prop33
280
     0
102
RTVSPost2010PropOp33
 70
     0
102
RTVSPost2010Prop34
280
     0
102
RTVSPost2010PropOp34
 70
     0
102
RTVSPost2010Prop35
280
     0
102
RTVSPost2010PropOp35
 70
     0
102
RTVSPost2010Prop36
280
     0
102
RTVSPost2010PropOp36
 70
     0
102
RTVSPost2010Prop37
 90
       50
102
RTVSPost2010PropOp37
 70
     0
102
RTVSPost2010Prop38
140
0.0
102
RTVSPost2010PropOp38
 70
     0
102
RTVSPost2010Prop39
140
1.0
102
RTVSPost2010PropOp39
 70
     0
102
RTVSPost2010Prop40
 90
        0
102
RTVSPost2010PropOp40
 70
     0
102
RTVSPost2010Prop41ColorIndex
 90
       18
102
RTVSPost2010Prop41ColorRGB
 90
        0
102
RTVSPost2010PropOp41
 70
     0
102
RTVSPost2010Prop42
 90
       50
102
RTVSPost2010PropOp42
 70
     0
102
RTVSPost2010Prop43
 90
        3
102
RTVSPost2010PropOp43
 70
     0
102
RTVSPost2010Prop44ColorIndex
 90
        5
102
RTVSPost2010Prop44ColorRGB
 90
      255
102
RTVSPost2010PropOp44
 70
     0
102
RTVSPost2010Prop45
280
     0
102
RTVSPost2010PropOp45
 70
     0
102
RTVSPost2010Prop46
 90
       50
102
RTVSPost2010PropOp46
 70
     0
102
RTVSPost2010Prop47
 90
       50
102
RTVSPost2010PropOp47
 70
     0
102
RTVSPost2010Prop48
 90
       50
102
RTVSPost2010PropOp48
 70
     0
102
RTVSPost2010Prop49
280
     0
102
RTVSPost2010PropOp49
 70
     0
102
RTVSPost2010Prop50
 90
       50
102
RTVSPost2010PropOp50
 70
     0
102
RTVSPost2010Prop51ColorIndex
 90
      256
102
RTVSPost2010Prop51ColorRGB
 90
-16777216
102
RTVSPost2010PropOp51
 70
     0
102
RTVSPost2010Prop52
140
1.0
102
RTVSPost2010PropOp52
 70
     0
102
RTVSPost2010Prop53
 90
        2
102
RTVSPost2010PropOp53
 70
     0
102
RTVSPost2010Prop54
  1
strokes_ogs.tif
102
RTVSPost2010PropOp54
 70
     0
102
RTVSPost2010Prop55
280
     0
102
RTVSPost2010PropOp55
 70
     0
102
RTVSPost2010Prop56
140
1.0
102
RTVSPost2010PropOp56
 70
     0
102
RTVSPost2010Prop57
140
1.0
102
RTVSPost2010PropOp57
 70
     0
  0
XRECORD
  5
937
102
{ACAD_REACTORS
330
936
102
}
330
936
100
AcDbXrecord
280
     1
102
RTVSPost2010Prop28
280
     0
102
RTVSPost2010PropOp28
 70
     1
102
RTVSPost2010Prop29
280
     1
102
RTVSPost2010PropOp29
 70
     1
102
RTVSPost2010Prop30
280
     1
102
RTVSPost2010PropOp30
 70
     1
102
RTVSPost2010Prop31
280
     0
102
RTVSPost2010PropOp31
 70
     1
102
RTVSPost2010Prop32
280
     0
102
RTVSPost2010PropOp32
 70
     1
102
RTVSPost2010Prop33
280
     0
102
RTVSPost2010PropOp33
 70
     1
102
RTVSPost2010Prop34
280
     0
102
RTVSPost2010PropOp34
 70
     1
102
RTVSPost2010Prop35
280
     0
102
RTVSPost2010PropOp35
 70
     1
102
RTVSPost2010Prop36
280
     0
102
RTVSPost2010PropOp36
 70
     1
102
RTVSPost2010Prop37
 90
       50
102
RTVSPost2010PropOp37
 70
     1
102
RTVSPost2010Prop38
140
0.0
102
RTVSPost2010PropOp38
 70
     1
102
RTVSPost2010Prop39
140
1.0
102
RTVSPost2010PropOp39
 70
     1
102
RTVSPost2010Prop40
 90
        0
102
RTVSPost2010PropOp40
 70
     1
102
RTVSPost2010Prop41ColorIndex
 90
       18
102
RTVSPost2010Prop41ColorRGB
 90
        0
102
RTVSPost2010PropOp41
 70
     1
102
RTVSPost2010Prop42
 90
       50
102
RTVSPost2010PropOp42
 70
     1
102
RTVSPost2010Prop43
 90
        3
102
RTVSPost2010PropOp43
 70
     1
102
RTVSPost2010Prop44ColorIndex
 90
        5
102
RTVSPost2010Prop44ColorRGB
 90
      255
102
RTVSPost2010PropOp44
 70
     1
102
RTVSPost2010Prop45
280
     0
102
RTVSPost2010PropOp45
 70
     1
102
RTVSPost2010Prop46
 90
       50
102
RTVSPost2010PropOp46
 70
     1
102
RTVSPost2010Prop47
 90
       50
102
RTVSPost2010PropOp47
 70
     1
102
RTVSPost2010Prop48
 90
       50
102
RTVSPost2010PropOp48
 70
     1
102
RTVSPost2010Prop49
280
     0
102
RTVSPost2010PropOp49
 70
     1
102
RTVSPost2010Prop50
 90
       50
102
RTVSPost2010PropOp50
 70
     1
102
RTVSPost2010Prop51ColorIndex
 90
      256
102
RTVSPost2010Prop51ColorRGB
 90
-16777216
102
RTVSPost2010PropOp51
 70
     0
102
RTVSPost2010Prop52
140
1.0
102
RTVSPost2010PropOp52
 70
     0
102
RTVSPost2010Prop53
 90
        2
102
RTVSPost2010PropOp53
 70
     1
102
RTVSPost2010Prop54
  1
strokes_ogs.tif
102
RTVSPost2010PropOp54
 70
     1
102
RTVSPost2010Prop55
280
     0
102
RTVSPost2010PropOp55
 70
     1
102
RTVSPost2010Prop56
140
1.0
102
RTVSPost2010PropOp56
 70
     1
102
RTVSPost2010Prop57
140
1.0
102
RTVSPost2010PropOp57
 70
     1
  0
XRECORD
  5
94D
102
{ACAD_REACTORS
330
94C
102
}
330
94C
100
AcDbXrecord
280
     1
102
RTVSPost2010Prop28
280
     0
102
RTVSPost2010PropOp28
 70
     1
102
RTVSPost2010Prop29
280
     1
102
RTVSPost2010PropOp29
 70
     1
102
RTVSPost2010Prop30
280
     1
102
RTVSPost2010PropOp30
 70
     1
102
RTVSPost2010Prop31
280
     0
102
RTVSPost2010PropOp31
 70
     1
102
RTVSPost2010Prop32
280
     0
102
RTVSPost2010PropOp32
 70
     1
102
RTVSPost2010Prop33
280
     0
102
RTVSPost2010PropOp33
 70
     1
102
RTVSPost2010Prop34
280
     0
102
RTVSPost2010PropOp34
 70
     1
102
RTVSPost2010Prop35
280
     0
102
RTVSPost2010PropOp35
 70
     1
102
RTVSPost2010Prop36
280
     0
102
RTVSPost2010PropOp36
 70
     1
102
RTVSPost2010Prop37
 90
       50
102
RTVSPost2010PropOp37
 70
     1
102
RTVSPost2010Prop38
140
0.0
102
RTVSPost2010PropOp38
 70
     1
102
RTVSPost2010Prop39
140
1.0
102
RTVSPost2010PropOp39
 70
     1
102
RTVSPost2010Prop40
 90
        0
102
RTVSPost2010PropOp40
 70
     1
102
RTVSPost2010Prop41ColorIndex
 90
       18
102
RTVSPost2010Prop41ColorRGB
 90
        0
102
RTVSPost2010PropOp41
 70
     1
102
RTVSPost2010Prop42
 90
       50
102
RTVSPost2010PropOp42
 70
     1
102
RTVSPost2010Prop43
 90
        3
102
RTVSPost2010PropOp43
 70
     1
102
RTVSPost2010Prop44ColorIndex
 90
        5
102
RTVSPost2010Prop44ColorRGB
 90
      255
102
RTVSPost2010PropOp44
 70
     1
102
RTVSPost2010Prop45
280
     0
102
RTVSPost2010PropOp45
 70
     1
102
RTVSPost2010Prop46
 90
       50
102
RTVSPost2010PropOp46
 70
     1
102
RTVSPost2010Prop47
 90
       50
102
RTVSPost2010PropOp47
 70
     1
102
RTVSPost2010Prop48
 90
       50
102
RTVSPost2010PropOp48
 70
     1
102
RTVSPost2010Prop49
280
     0
102
RTVSPost2010PropOp49
 70
     1
102
RTVSPost2010Prop50
 90
       50
102
RTVSPost2010PropOp50
 70
     1
102
RTVSPost2010Prop51ColorIndex
 90
      256
102
RTVSPost2010Prop51ColorRGB
 90
-16777216
102
RTVSPost2010PropOp51
 70
     0
102
RTVSPost2010Prop52
140
1.0
102
RTVSPost2010PropOp52
 70
     0
102
RTVSPost2010Prop53
 90
        2
102
RTVSPost2010PropOp53
 70
     1
102
RTVSPost2010Prop54
  1
strokes_ogs.tif
102
RTVSPost2010PropOp54
 70
     1
102
RTVSPost2010Prop55
280
     0
102
RTVSPost2010PropOp55
 70
     1
102
RTVSPost2010Prop56
140
1.0
102
RTVSPost2010PropOp56
 70
     1
102
RTVSPost2010Prop57
140
1.0
102
RTVSPost2010PropOp57
 70
     1
  0
XRECORD
  5
94B
102
{ACAD_REACTORS
330
94A
102
}
330
94A
100
AcDbXrecord
280
     1
102
RTVSPost2010Prop28
280
     0
102
RTVSPost2010PropOp28
 70
     1
102
RTVSPost2010Prop29
280
     1
102
RTVSPost2010PropOp29
 70
     1
102
RTVSPost2010Prop30
280
     1
102
RTVSPost2010PropOp30
 70
     1
102
RTVSPost2010Prop31
280
     0
102
RTVSPost2010PropOp31
 70
     1
102
RTVSPost2010Prop32
280
     0
102
RTVSPost2010PropOp32
 70
     1
102
RTVSPost2010Prop33
280
     0
102
RTVSPost2010PropOp33
 70
     1
102
RTVSPost2010Prop34
280
     0
102
RTVSPost2010PropOp34
 70
     1
102
RTVSPost2010Prop35
280
     0
102
RTVSPost2010PropOp35
 70
     1
102
RTVSPost2010Prop36
280
     0
102
RTVSPost2010PropOp36
 70
     1
102
RTVSPost2010Prop37
 90
       50
102
RTVSPost2010PropOp37
 70
     1
102
RTVSPost2010Prop38
140
0.0
102
RTVSPost2010PropOp38
 70
     1
102
RTVSPost2010Prop39
140
1.0
102
RTVSPost2010PropOp39
 70
     1
102
RTVSPost2010Prop40
 90
        0
102
RTVSPost2010PropOp40
 70
     1
102
RTVSPost2010Prop41ColorIndex
 90
       18
102
RTVSPost2010Prop41ColorRGB
 90
        0
102
RTVSPost2010PropOp41
 70
     1
102
RTVSPost2010Prop42
 90
       50
102
RTVSPost2010PropOp42
 70
     1
102
RTVSPost2010Prop43
 90
        3
102
RTVSPost2010PropOp43
 70
     1
102
RTVSPost2010Prop44ColorIndex
 90
        5
102
RTVSPost2010Prop44ColorRGB
 90
      255
102
RTVSPost2010PropOp44
 70
     1
102
RTVSPost2010Prop45
280
     0
102
RTVSPost2010PropOp45
 70
     1
102
RTVSPost2010Prop46
 90
       50
102
RTVSPost2010PropOp46
 70
     1
102
RTVSPost2010Prop47
 90
       50
102
RTVSPost2010PropOp47
 70
     1
102
RTVSPost2010Prop48
 90
       50
102
RTVSPost2010PropOp48
 70
     1
102
RTVSPost2010Prop49
280
     0
102
RTVSPost2010PropOp49
 70
     1
102
RTVSPost2010Prop50
 90
       50
102
RTVSPost2010PropOp50
 70
     1
102
RTVSPost2010Prop51ColorIndex
 90
      256
102
RTVSPost2010Prop51ColorRGB
 90
-16777216
102
RTVSPost2010PropOp51
 70
     0
102
RTVSPost2010Prop52
140
1.0
102
RTVSPost2010PropOp52
 70
     0
102
RTVSPost2010Prop53
 90
        2
102
RTVSPost2010PropOp53
 70
     1
102
RTVSPost2010Prop54
  1
strokes_ogs.tif
102
RTVSPost2010PropOp54
 70
     1
102
RTVSPost2010Prop55
280
     0
102
RTVSPost2010PropOp55
 70
     1
102
RTVSPost2010Prop56
140
1.0
102
RTVSPost2010PropOp56
 70
     1
102
RTVSPost2010Prop57
140
1.0
102
RTVSPost2010PropOp57
 70
     1
  0
XRECORD
  5
945
102
{ACAD_REACTORS
330
944
102
}
330
944
100
AcDbXrecord
280
     1
102
RTVSPost2010Prop28
280
     0
102
RTVSPost2010PropOp28
 70
     1
102
RTVSPost2010Prop29
280
     1
102
RTVSPost2010PropOp29
 70
     1
102
RTVSPost2010Prop30
280
     1
102
RTVSPost2010PropOp30
 70
     1
102
RTVSPost2010Prop31
280
     0
102
RTVSPost2010PropOp31
 70
     1
102
RTVSPost2010Prop32
280
     0
102
RTVSPost2010PropOp32
 70
     1
102
RTVSPost2010Prop33
280
     0
102
RTVSPost2010PropOp33
 70
     1
102
RTVSPost2010Prop34
280
     0
102
RTVSPost2010PropOp34
 70
     1
102
RTVSPost2010Prop35
280
     0
102
RTVSPost2010PropOp35
 70
     1
102
RTVSPost2010Prop36
280
     0
102
RTVSPost2010PropOp36
 70
     1
102
RTVSPost2010Prop37
 90
       50
102
RTVSPost2010PropOp37
 70
     1
102
RTVSPost2010Prop38
140
0.0
102
RTVSPost2010PropOp38
 70
     1
102
RTVSPost2010Prop39
140
1.0
102
RTVSPost2010PropOp39
 70
     1
102
RTVSPost2010Prop40
 90
        0
102
RTVSPost2010PropOp40
 70
     1
102
RTVSPost2010Prop41ColorIndex
 90
       18
102
RTVSPost2010Prop41ColorRGB
 90
        0
102
RTVSPost2010PropOp41
 70
     1
102
RTVSPost2010Prop42
 90
       50
102
RTVSPost2010PropOp42
 70
     1
102
RTVSPost2010Prop43
 90
        3
102
RTVSPost2010PropOp43
 70
     1
102
RTVSPost2010Prop44ColorIndex
 90
        5
102
RTVSPost2010Prop44ColorRGB
 90
      255
102
RTVSPost2010PropOp44
 70
     1
102
RTVSPost2010Prop45
280
     0
102
RTVSPost2010PropOp45
 70
     1
102
RTVSPost2010Prop46
 90
       50
102
RTVSPost2010PropOp46
 70
     1
102
RTVSPost2010Prop47
 90
       50
102
RTVSPost2010PropOp47
 70
     1
102
RTVSPost2010Prop48
 90
       50
102
RTVSPost2010PropOp48
 70
     1
102
RTVSPost2010Prop49
280
     0
102
RTVSPost2010PropOp49
 70
     1
102
RTVSPost2010Prop50
 90
       50
102
RTVSPost2010PropOp50
 70
     1
102
RTVSPost2010Prop51ColorIndex
 90
      256
102
RTVSPost2010Prop51ColorRGB
 90
-16777216
102
RTVSPost2010PropOp51
 70
     0
102
RTVSPost2010Prop52
140
1.0
102
RTVSPost2010PropOp52
 70
     0
102
RTVSPost2010Prop53
 90
        2
102
RTVSPost2010PropOp53
 70
     1
102
RTVSPost2010Prop54
  1
strokes_ogs.tif
102
RTVSPost2010PropOp54
 70
     1
102
RTVSPost2010Prop55
280
     0
102
RTVSPost2010PropOp55
 70
     1
102
RTVSPost2010Prop56
140
1.0
102
RTVSPost2010PropOp56
 70
     1
102
RTVSPost2010Prop57
140
1.0
102
RTVSPost2010PropOp57
 70
     1
  0
XRECORD
  5
947
102
{ACAD_REACTORS
330
946
102
}
330
946
100
AcDbXrecord
280
     1
102
RTVSPost2010Prop28
280
     0
102
RTVSPost2010PropOp28
 70
     1
102
RTVSPost2010Prop29
280
     1
102
RTVSPost2010PropOp29
 70
     1
102
RTVSPost2010Prop30
280
     1
102
RTVSPost2010PropOp30
 70
     1
102
RTVSPost2010Prop31
280
     0
102
RTVSPost2010PropOp31
 70
     1
102
RTVSPost2010Prop32
280
     0
102
RTVSPost2010PropOp32
 70
     1
102
RTVSPost2010Prop33
280
     0
102
RTVSPost2010PropOp33
 70
     1
102
RTVSPost2010Prop34
280
     0
102
RTVSPost2010PropOp34
 70
     1
102
RTVSPost2010Prop35
280
     0
102
RTVSPost2010PropOp35
 70
     1
102
RTVSPost2010Prop36
280
     0
102
RTVSPost2010PropOp36
 70
     1
102
RTVSPost2010Prop37
 90
       50
102
RTVSPost2010PropOp37
 70
     1
102
RTVSPost2010Prop38
140
0.0
102
RTVSPost2010PropOp38
 70
     1
102
RTVSPost2010Prop39
140
1.0
102
RTVSPost2010PropOp39
 70
     1
102
RTVSPost2010Prop40
 90
        0
102
RTVSPost2010PropOp40
 70
     1
102
RTVSPost2010Prop41ColorIndex
 90
       18
102
RTVSPost2010Prop41ColorRGB
 90
        0
102
RTVSPost2010PropOp41
 70
     1
102
RTVSPost2010Prop42
 90
       50
102
RTVSPost2010PropOp42
 70
     1
102
RTVSPost2010Prop43
 90
        3
102
RTVSPost2010PropOp43
 70
     1
102
RTVSPost2010Prop44ColorIndex
 90
        5
102
RTVSPost2010Prop44ColorRGB
 90
      255
102
RTVSPost2010PropOp44
 70
     1
102
RTVSPost2010Prop45
280
     0
102
RTVSPost2010PropOp45
 70
     1
102
RTVSPost2010Prop46
 90
       50
102
RTVSPost2010PropOp46
 70
     1
102
RTVSPost2010Prop47
 90
       50
102
RTVSPost2010PropOp47
 70
     1
102
RTVSPost2010Prop48
 90
       50
102
RTVSPost2010PropOp48
 70
     1
102
RTVSPost2010Prop49
280
     0
102
RTVSPost2010PropOp49
 70
     1
102
RTVSPost2010Prop50
 90
       50
102
RTVSPost2010PropOp50
 70
     1
102
RTVSPost2010Prop51ColorIndex
 90
      256
102
RTVSPost2010Prop51ColorRGB
 90
-16777216
102
RTVSPost2010PropOp51
 70
     0
102
RTVSPost2010Prop52
140
1.0
102
RTVSPost2010PropOp52
 70
     0
102
RTVSPost2010Prop53
 90
        2
102
RTVSPost2010PropOp53
 70
     1
102
RTVSPost2010Prop54
  1
strokes_ogs.tif
102
RTVSPost2010PropOp54
 70
     1
102
RTVSPost2010Prop55
280
     0
102
RTVSPost2010PropOp55
 70
     1
102
RTVSPost2010Prop56
140
1.0
102
RTVSPost2010PropOp56
 70
     1
102
RTVSPost2010Prop57
140
1.0
102
RTVSPost2010PropOp57
 70
     1
  0
XRECORD
  5
93D
102
{ACAD_REACTORS
330
93C
102
}
330
93C
100
AcDbXrecord
280
     1
102
RTVSPost2010Prop28
280
     0
102
RTVSPost2010PropOp28
 70
     1
102
RTVSPost2010Prop29
280
     1
102
RTVSPost2010PropOp29
 70
     1
102
RTVSPost2010Prop30
280
     1
102
RTVSPost2010PropOp30
 70
     1
102
RTVSPost2010Prop31
280
     0
102
RTVSPost2010PropOp31
 70
     1
102
RTVSPost2010Prop32
280
     0
102
RTVSPost2010PropOp32
 70
     1
102
RTVSPost2010Prop33
280
     0
102
RTVSPost2010PropOp33
 70
     1
102
RTVSPost2010Prop34
280
     0
102
RTVSPost2010PropOp34
 70
     1
102
RTVSPost2010Prop35
280
     0
102
RTVSPost2010PropOp35
 70
     1
102
RTVSPost2010Prop36
280
     0
102
RTVSPost2010PropOp36
 70
     1
102
RTVSPost2010Prop37
 90
       50
102
RTVSPost2010PropOp37
 70
     1
102
RTVSPost2010Prop38
140
0.0
102
RTVSPost2010PropOp38
 70
     1
102
RTVSPost2010Prop39
140
1.0
102
RTVSPost2010PropOp39
 70
     1
102
RTVSPost2010Prop40
 90
        0
102
RTVSPost2010PropOp40
 70
     1
102
RTVSPost2010Prop41ColorIndex
 90
       18
102
RTVSPost2010Prop41ColorRGB
 90
        0
102
RTVSPost2010PropOp41
 70
     1
102
RTVSPost2010Prop42
 90
       50
102
RTVSPost2010PropOp42
 70
     1
102
RTVSPost2010Prop43
 90
        3
102
RTVSPost2010PropOp43
 70
     1
102
RTVSPost2010Prop44ColorIndex
 90
        5
102
RTVSPost2010Prop44ColorRGB
 90
      255
102
RTVSPost2010PropOp44
 70
     1
102
RTVSPost2010Prop45
280
     0
102
RTVSPost2010PropOp45
 70
     1
102
RTVSPost2010Prop46
 90
       50
102
RTVSPost2010PropOp46
 70
     1
102
RTVSPost2010Prop47
 90
       50
102
RTVSPost2010PropOp47
 70
     1
102
RTVSPost2010Prop48
 90
       50
102
RTVSPost2010PropOp48
 70
     1
102
RTVSPost2010Prop49
280
     0
102
RTVSPost2010PropOp49
 70
     1
102
RTVSPost2010Prop50
 90
       50
102
RTVSPost2010PropOp50
 70
     1
102
RTVSPost2010Prop51ColorIndex
 90
      256
102
RTVSPost2010Prop51ColorRGB
 90
-16777216
102
RTVSPost2010PropOp51
 70
     0
102
RTVSPost2010Prop52
140
1.0
102
RTVSPost2010PropOp52
 70
     0
102
RTVSPost2010Prop53
 90
        2
102
RTVSPost2010PropOp53
 70
     1
102
RTVSPost2010Prop54
  1
strokes_ogs.tif
102
RTVSPost2010PropOp54
 70
     1
102
RTVSPost2010Prop55
280
     0
102
RTVSPost2010PropOp55
 70
     1
102
RTVSPost2010Prop56
140
1.0
102
RTVSPost2010PropOp56
 70
     1
102
RTVSPost2010Prop57
140
1.0
102
RTVSPost2010PropOp57
 70
     1
  0
XRECORD
  5
931
102
{ACAD_REACTORS
330
930
102
}
330
930
100
AcDbXrecord
280
     1
102
RTVSPost2010Prop28
280
     0
102
RTVSPost2010PropOp28
 70
     1
102
RTVSPost2010Prop29
280
     1
102
RTVSPost2010PropOp29
 70
     1
102
RTVSPost2010Prop30
280
     1
102
RTVSPost2010PropOp30
 70
     1
102
RTVSPost2010Prop31
280
     0
102
RTVSPost2010PropOp31
 70
     1
102
RTVSPost2010Prop32
280
     0
102
RTVSPost2010PropOp32
 70
     1
102
RTVSPost2010Prop33
280
     0
102
RTVSPost2010PropOp33
 70
     1
102
RTVSPost2010Prop34
280
     0
102
RTVSPost2010PropOp34
 70
     1
102
RTVSPost2010Prop35
280
     0
102
RTVSPost2010PropOp35
 70
     1
102
RTVSPost2010Prop36
280
     0
102
RTVSPost2010PropOp36
 70
     1
102
RTVSPost2010Prop37
 90
       50
102
RTVSPost2010PropOp37
 70
     1
102
RTVSPost2010Prop38
140
0.0
102
RTVSPost2010PropOp38
 70
     1
102
RTVSPost2010Prop39
140
1.0
102
RTVSPost2010PropOp39
 70
     1
102
RTVSPost2010Prop40
 90
        0
102
RTVSPost2010PropOp40
 70
     1
102
RTVSPost2010Prop41ColorIndex
 90
       18
102
RTVSPost2010Prop41ColorRGB
 90
        0
102
RTVSPost2010PropOp41
 70
     1
102
RTVSPost2010Prop42
 90
       50
102
RTVSPost2010PropOp42
 70
     1
102
RTVSPost2010Prop43
 90
        3
102
RTVSPost2010PropOp43
 70
     1
102
RTVSPost2010Prop44ColorIndex
 90
        5
102
RTVSPost2010Prop44ColorRGB
 90
      255
102
RTVSPost2010PropOp44
 70
     1
102
RTVSPost2010Prop45
280
     0
102
RTVSPost2010PropOp45
 70
     1
102
RTVSPost2010Prop46
 90
       50
102
RTVSPost2010PropOp46
 70
     1
102
RTVSPost2010Prop47
 90
       50
102
RTVSPost2010PropOp47
 70
     1
102
RTVSPost2010Prop48
 90
       50
102
RTVSPost2010PropOp48
 70
     1
102
RTVSPost2010Prop49
280
     0
102
RTVSPost2010PropOp49
 70
     1
102
RTVSPost2010Prop50
 90
       50
102
RTVSPost2010PropOp50
 70
     1
102
RTVSPost2010Prop51ColorIndex
 90
      256
102
RTVSPost2010Prop51ColorRGB
 90
-16777216
102
RTVSPost2010PropOp51
 70
     0
102
RTVSPost2010Prop52
140
1.0
102
RTVSPost2010PropOp52
 70
     0
102
RTVSPost2010Prop53
 90
        2
102
RTVSPost2010PropOp53
 70
     1
102
RTVSPost2010Prop54
  1
strokes_ogs.tif
102
RTVSPost2010PropOp54
 70
     1
102
RTVSPost2010Prop55
280
     0
102
RTVSPost2010PropOp55
 70
     1
102
RTVSPost2010Prop56
140
1.0
102
RTVSPost2010PropOp56
 70
     1
102
RTVSPost2010Prop57
140
1.0
102
RTVSPost2010PropOp57
 70
     1
  0
XRECORD
  5
949
102
{ACAD_REACTORS
330
948
102
}
330
948
100
AcDbXrecord
280
     1
102
RTVSPost2010Prop28
280
     0
102
RTVSPost2010PropOp28
 70
     1
102
RTVSPost2010Prop29
280
     1
102
RTVSPost2010PropOp29
 70
     1
102
RTVSPost2010Prop30
280
     1
102
RTVSPost2010PropOp30
 70
     1
102
RTVSPost2010Prop31
280
     0
102
RTVSPost2010PropOp31
 70
     1
102
RTVSPost2010Prop32
280
     0
102
RTVSPost2010PropOp32
 70
     1
102
RTVSPost2010Prop33
280
     0
102
RTVSPost2010PropOp33
 70
     1
102
RTVSPost2010Prop34
280
     0
102
RTVSPost2010PropOp34
 70
     1
102
RTVSPost2010Prop35
280
     0
102
RTVSPost2010PropOp35
 70
     1
102
RTVSPost2010Prop36
280
     0
102
RTVSPost2010PropOp36
 70
     1
102
RTVSPost2010Prop37
 90
       50
102
RTVSPost2010PropOp37
 70
     1
102
RTVSPost2010Prop38
140
0.0
102
RTVSPost2010PropOp38
 70
     1
102
RTVSPost2010Prop39
140
1.0
102
RTVSPost2010PropOp39
 70
     1
102
RTVSPost2010Prop40
 90
        0
102
RTVSPost2010PropOp40
 70
     1
102
RTVSPost2010Prop41ColorIndex
 90
       18
102
RTVSPost2010Prop41ColorRGB
 90
        0
102
RTVSPost2010PropOp41
 70
     1
102
RTVSPost2010Prop42
 90
       50
102
RTVSPost2010PropOp42
 70
     1
102
RTVSPost2010Prop43
 90
        3
102
RTVSPost2010PropOp43
 70
     1
102
RTVSPost2010Prop44ColorIndex
 90
        5
102
RTVSPost2010Prop44ColorRGB
 90
      255
102
RTVSPost2010PropOp44
 70
     1
102
RTVSPost2010Prop45
280
     0
102
RTVSPost2010PropOp45
 70
     1
102
RTVSPost2010Prop46
 90
       50
102
RTVSPost2010PropOp46
 70
     1
102
RTVSPost2010Prop47
 90
       50
102
RTVSPost2010PropOp47
 70
     1
102
RTVSPost2010Prop48
 90
       50
102
RTVSPost2010PropOp48
 70
     1
102
RTVSPost2010Prop49
280
     0
102
RTVSPost2010PropOp49
 70
     1
102
RTVSPost2010Prop50
 90
       50
102
RTVSPost2010PropOp50
 70
     1
102
RTVSPost2010Prop51ColorIndex
 90
      256
102
RTVSPost2010Prop51ColorRGB
 90
-16777216
102
RTVSPost2010PropOp51
 70
     0
102
RTVSPost2010Prop52
140
1.0
102
RTVSPost2010PropOp52
 70
     0
102
RTVSPost2010Prop53
 90
        2
102
RTVSPost2010PropOp53
 70
     1
102
RTVSPost2010Prop54
  1
strokes_ogs.tif
102
RTVSPost2010PropOp54
 70
     1
102
RTVSPost2010Prop55
280
     0
102
RTVSPost2010PropOp55
 70
     1
102
RTVSPost2010Prop56
140
1.0
102
RTVSPost2010PropOp56
 70
     1
102
RTVSPost2010Prop57
140
1.0
102
RTVSPost2010PropOp57
 70
     1
  0
ENDSEC
  0
EOF
